<?xml version="1.0" standalone="no"?>
<!DOCTYPE svg PUBLIC "-//W3C//DTD SVG 1.1//EN" "http://www.w3.org/Graphics/SVG/1.1/DTD/svg11.dtd" >
<svg>
<metadata>
Created by FontForge 20090622 at Thu Sep 27 11:33:28 2012
 By ffonts
Copyright (c) Arkandis Digital Foundry, under GNU General Public License V2 and later, with font exception.
</metadata>
<defs>
<font id="BerenisADFPro-Regular" horiz-adv-x="550" >
  <font-face 
    font-family="Berenis ADF Pro"
    font-weight="400"
    font-stretch="normal"
    units-per-em="1000"
    panose-1="2 0 5 3 8 0 0 2 0 3"
    ascent="750"
    descent="-250"
    x-height="400"
    cap-height="722"
    bbox="-142 -310 1988 968"
    underline-thickness="50"
    underline-position="-125"
    stemh="24"
    stemv="85"
    unicode-range="U+0020-U+FB06"
  />
<missing-glyph horiz-adv-x="500" 
d="M0 0v700h500v-700h-500zM250 395l170 255h-340zM280 350l170 -255v510zM80 50h340l-170 255zM50 605v-510l170 255z" />
    <glyph glyph-name="f_j" unicode="fj" horiz-adv-x="515" 
d="M390 -23v408l-208 -2v-368h83v-15h-239v15h71v368h-79v17h79v126c0 128 125 206 224 209h6c71 0 157 -31 157 -70c0 -23 -20 -37 -50 -37c-28 0 -49 13 -49 30s12 19 12 38c0 18 -62 27 -79 27c-69 0 -136 -84 -136 -180v-143h293v-370c0 -104 -3 -230 -153 -230
c-57 0 -97 24 -97 59c0 21 22 37 51 37c24 0 46 -12 46 -27c0 -9 -10 -13 -10 -34c0 -14 7 -26 18 -26c47 0 60 72 60 168z" />
    <glyph glyph-name="f_f_j" unicode="ffj" horiz-adv-x="803" 
d="M678 -12v397l-208 -2v-368h83v-15h-239v15h71v368h-203v-368h83v-15h-239v15h71v368h-79v17h79v135c0 69 18 172 171 172c72 0 115 -25 115 -65c0 -23 -20 -37 -50 -37c-28 0 -49 13 -49 30s12 19 12 38c0 18 -9 27 -26 27c-35 0 -88 -22 -88 -148v-152h203v126
c0 128 125 206 224 209h6c71 0 157 -31 157 -70c0 -23 -20 -37 -50 -37c-28 0 -49 13 -49 30s12 19 12 38c0 18 -62 27 -79 27c-69 0 -136 -84 -136 -180v-143h293v-370c-1 -104 -4 -230 -154 -230c-57 0 -97 24 -97 59c0 21 22 37 51 37c24 0 46 -12 46 -27
c0 -9 -10 -13 -10 -34c0 -14 7 -26 18 -26c49 0 61 78 61 179z" />
    <glyph glyph-name="f_t" unicode="ft" horiz-adv-x="660" 
d="M318 400c67 0 109 81 118 175h40v-175h122v-17h-122v-263c0 -47 5 -108 50 -108c42 0 65 42 68 126h44c0 -64 -27 -150 -134 -150c-111 0 -114 66 -114 135v260h-208v-368h83v-15h-239v15h71v368h-79v17h79v158c0 69 18 172 171 172c72 0 115 -25 115 -65
c0 -23 -20 -37 -50 -37c-28 0 -49 13 -49 30s12 19 12 38c0 18 -9 27 -26 27c-35 0 -88 -22 -88 -148v-175h136z" />
    <glyph glyph-name="f_f_t" unicode="fft" horiz-adv-x="945" 
d="M384 400v163c0 69 22 167 171 167c72 0 115 -25 115 -65c0 -23 -20 -37 -50 -37c-28 0 -49 13 -49 30s12 19 12 38c0 18 -9 27 -26 27c-35 0 -88 -22 -88 -148v-175h134c67 0 109 81 118 175h40v-175h122v-17h-122v-263c0 -47 5 -108 50 -108c42 0 65 42 68 126h44
c0 -64 -27 -150 -134 -150c-111 0 -114 66 -114 135v260h-206v-368h83v-15h-239v15h71v368h-202v-368h83v-15h-239v15h71v368h-79v17h79v135c0 69 18 172 171 172c72 0 115 -25 115 -65c0 -23 -20 -37 -50 -37c-28 0 -49 13 -49 30s12 19 12 38c0 18 -9 27 -26 27
c-35 0 -88 -22 -88 -148v-152h202z" />
    <glyph glyph-name="f_f" unicode="ff" horiz-adv-x="582" 
d="M561 723c-35 0 -88 -22 -88 -148v-175h98v-17h-98v-368h83v-15h-239v15h71v368h-206v-368h83v-15h-239v15h71v368h-79v17h79v135c0 69 18 172 171 172c72 0 115 -25 115 -65c0 -23 -20 -37 -50 -37c-28 0 -49 13 -49 30s12 19 12 38c0 18 -9 27 -26 27
c-35 0 -88 -22 -88 -148v-152h206v158c0 69 18 172 171 172c72 0 115 -25 115 -65c0 -23 -20 -37 -50 -37c-28 0 -49 13 -49 30s12 19 12 38c0 18 -9 27 -26 27z" />
    <glyph glyph-name="f_i" unicode="fi" horiz-adv-x="554" 
d="M97 526c0 128 125 206 224 209h6c71 0 157 -31 157 -70c0 -23 -20 -37 -50 -37c-28 0 -49 13 -49 30s12 19 12 38c0 18 -62 27 -79 27c-69 0 -136 -84 -136 -180v-143h293v-385h74v-15h-230v15h71v370l-208 -2v-368h83v-15h-239v15h71v368h-79v17h79v126z" />
    <glyph glyph-name="f_l" unicode="fl" horiz-adv-x="537" 
d="M371 715h-27c-24 0 -58 8 -74 8c-35 0 -88 -22 -88 -148v-175h98v-17h-98v-368h83v-15h-239v15h71v368h-79v17h79v158c0 69 18 172 171 172c8 0 16 0 23 -1v1h164v-715h75v-15h-230v15h71v700z" />
    <glyph glyph-name="f_f_i" unicode="ffi" horiz-adv-x="845" 
d="M270 700c-35 0 -88 -22 -88 -148v-152h203v126c0 128 125 206 224 209h6c71 0 157 -31 157 -70c0 -23 -20 -37 -50 -37c-28 0 -49 13 -49 30s12 19 12 38c0 18 -62 27 -79 27c-69 0 -136 -84 -136 -180v-143h293v-385h74v-15h-230v15h71v370l-208 -2v-368h83v-15h-239v15
h71v368h-203v-368h83v-15h-239v15h71v368h-79v17h79v135c0 69 18 172 171 172c72 0 115 -25 115 -65c0 -23 -20 -37 -50 -37c-28 0 -49 13 -49 30s12 19 12 38c0 18 -9 27 -26 27z" />
    <glyph glyph-name="f_f_l" unicode="ffl" horiz-adv-x="828" 
d="M662 715h-27c-26 0 -58 8 -74 8c-35 0 -88 -22 -88 -148v-175h98v-17h-98v-368h83v-15h-239v15h71v368h-206v-368h83v-15h-239v15h71v368h-79v17h79v135c0 69 18 172 171 172c72 0 115 -25 115 -65c0 -23 -20 -37 -50 -37c-28 0 -49 13 -49 30s12 19 12 38
c0 18 -9 27 -26 27c-35 0 -88 -22 -88 -148v-152h206v158c0 69 18 172 171 172c8 0 16 0 23 -1v1h164v-715h75v-15h-230v15h71v700z" />
    <glyph glyph-name="longs_t" unicode="&#x17f;t" horiz-adv-x="646" 
d="M182 575v-560h83v-15h-239v15h71v368h-79c174 29 -53 347 268 347c72 0 178 -40 178 -155v-175h122v-17h-122v-263c0 -47 5 -108 50 -108c42 0 65 42 68 126h44c0 -69 -27 -150 -134 -150c-111 0 -114 66 -114 135v260h-72v17c70 5 118 74 118 175c0 91 -82 148 -136 148
c-43 0 -106 -23 -106 -148z" />
    <glyph glyph-name=".notdef" horiz-adv-x="500" 
d="M0 0v700h500v-700h-500zM250 395l170 255h-340zM280 350l170 -255v510zM80 50h340l-170 255zM50 605v-510l170 255z" />
    <glyph glyph-name="space" unicode=" " horiz-adv-x="300" 
 />
    <glyph glyph-name="exclam" unicode="!" horiz-adv-x="281" 
d="M121 195c-2 384 -34 331 -34 460c0 53 18 81 53 81s52 -27 52 -82c0 -134 -34 -104 -34 -459h-37zM140 83c29 0 53 -22 53 -48c0 -27 -24 -49 -54 -49c-28 0 -53 22 -53 49c0 26 25 48 54 48z" />
    <glyph glyph-name="quotedbl" unicode="&#x22;" horiz-adv-x="325" 
d="M75 498l-27 193v14c0 19 17 31 38 31c23 0 39 -12 39 -31c0 -5 0 -10 -1 -14l-26 -193h-23zM225 498l-27 193v14c0 19 17 31 39 31s38 -12 38 -31v-14l-27 -193h-23z" />
    <glyph glyph-name="numbersign" unicode="#" horiz-adv-x="441" 
d="M97 236h-87v35h93l16 159h-86v35h94l26 221h59l-26 -221h99l26 221h60l-26 -221h86v-35h-93l-16 -159h85v-35h-91l-28 -236h-61l28 236h-98l-28 -236h-60zM180 430l-17 -159h99l17 159h-99z" />
    <glyph glyph-name="dollar" unicode="$" horiz-adv-x="445" 
d="M142 168c0 -51 -45 -29 -45 -78c0 -38 44 -71 102 -78v309c-127 48 -164 114 -164 190c0 101 60 168 164 183v107h43v-106c93 -8 155 -64 155 -140c0 -35 -22 -55 -56 -55c-31 0 -53 17 -53 43c0 43 35 26 35 67c0 26 -38 56 -81 62v-274c35 -35 180 -35 180 -199
c0 -122 -68 -199 -180 -206v-123h-43v122c-100 9 -175 67 -175 152c0 42 27 71 63 71c31 0 55 -20 55 -47zM199 409v261c-57 -7 -96 -59 -96 -126c0 -66 26 -102 96 -135zM242 14c99 9 111 114 111 148c0 123 -99 145 -111 149v-297z" />
    <glyph glyph-name="percent" unicode="%" horiz-adv-x="843" 
d="M172 700c64 0 139 -78 139 -188c0 -106 -58 -179 -138 -179c-78 0 -135 75 -135 181c0 107 57 186 134 186zM225 523c0 144 -31 168 -51 168s-51 -27 -51 -165c0 -109 10 -183 51 -183s51 82 51 180zM609 356c68 0 139 -66 139 -188c0 -106 -58 -179 -138 -179
c-78 0 -135 75 -135 181c0 107 57 186 134 186zM662 179c0 144 -31 168 -51 168s-51 -27 -51 -165c0 -109 10 -183 51 -183s51 82 51 180zM582 708h50l-424 -708h-50z" />
    <glyph glyph-name="ampersand" unicode="&#x26;" horiz-adv-x="648" 
d="M641 141c-24 -152 -104 -152 -150 -152c-47 0 -92 12 -133 63c-55 -52 -90 -67 -151 -67c-148 0 -185 136 -185 196c0 94 60 179 154 235c-26 69 -44 107 -44 153c0 100 62 168 153 168c80 0 135 -50 135 -124c0 -126 -114 -177 -146 -200c49 -121 92 -209 132 -272
c35 56 85 191 85 240h-101v19h244v-19h-12c-94 0 -108 -130 -194 -271c33 -57 67 -72 98 -72c37 0 64 41 74 109zM262 442c28 23 84 59 84 169c0 67 -27 115 -64 115c-36 0 -63 -51 -63 -121c0 -42 21 -94 43 -163zM187 386c-47 -41 -68 -84 -68 -148
c0 -113 67 -215 139 -215c27 0 46 12 82 53c-71 110 -98 166 -153 310z" />
    <glyph glyph-name="quotesingle" unicode="'" horiz-adv-x="174" 
d="M75 498l-27 193v14c0 19 17 31 38 31c23 0 39 -12 39 -31c0 -5 0 -10 -1 -14l-26 -193h-23z" />
    <glyph glyph-name="parenleft" unicode="(" horiz-adv-x="250" 
d="M237 -123c-46 35 -207 152 -207 430c0 259 127 372 207 429v-16c-84 -93 -119 -211 -119 -413c0 -201 35 -320 119 -413v-17z" />
    <glyph glyph-name="parenright" unicode=")" horiz-adv-x="252" 
d="M13 736c136 -96 208 -252 208 -429c0 -258 -130 -374 -208 -430v17c84 93 118 211 118 413s-34 320 -118 413v16z" />
    <glyph glyph-name="asterisk" unicode="*" horiz-adv-x="400" 
d="M341 628v-50h-81l57 -57l-36 -36l-56 56v-79h-51v79l-56 -56l-36 36l57 57h-80v50h80l-57 57l36 36l56 -56v79h51v-79l56 56l36 -36l-57 -57h81z" />
    <glyph glyph-name="plus" unicode="+" horiz-adv-x="455" 
d="M191 226v178h73v-178h179v-48h-179v-178h-73v178h-179v48h179z" />
    <glyph glyph-name="comma" unicode="," horiz-adv-x="201" 
d="M54 -146l-21 8c55 40 82 80 82 116c0 15 0 21 -2 21h-2c-2 -1 -11 -1 -14 -1c-35 0 -50 25 -50 46c0 22 20 44 52 44c41 0 58 -40 58 -82c0 -54 -28 -105 -103 -152z" />
    <glyph glyph-name="hyphen" unicode="-" horiz-adv-x="324" 
d="M312 178h-300v48h300v-48z" />
    <glyph glyph-name="period" unicode="." horiz-adv-x="213" 
d="M105 111c31 0 56 -29 56 -62c0 -35 -25 -63 -57 -63c-30 0 -55 28 -55 63c0 33 25 62 56 62z" />
    <glyph glyph-name="slash" unicode="/" horiz-adv-x="286" 
d="M229 736h52l-224 -750h-52z" />
    <glyph glyph-name="zero" unicode="0" horiz-adv-x="559" 
d="M283 704c118 0 197 -148 197 -365c0 -208 -85 -351 -204 -351c-115 0 -200 148 -200 354c0 209 88 362 207 362zM379 358c0 287 -61 335 -102 335c-40 0 -101 -51 -101 -329c0 -176 7 -244 29 -294c20 -47 46 -70 73 -70c81 0 101 155 101 358z" />
    <glyph glyph-name="one" unicode="1" horiz-adv-x="388" 
d="M247 544v-450c0 -65 3 -71 73 -71h48v-23h-338v23h57c65 0 72 6 72 63v445c0 74 -4 79 -49 79h-76v20c77 2 155 33 183 74h35c-3 -68 -5 -113 -5 -160z" />
    <glyph glyph-name="two" unicode="2" horiz-adv-x="540" 
d="M453 518c0 -152 -145 -213 -301 -443h221c50 0 51 35 66 82l12 44h43l-23 -210c-13 5 -25 9 -37 9h-341c-14 -1 -25 -4 -40 -9v22c158 244 297 345 297 523c0 98 -39 157 -107 157c-90 0 -113 -98 -113 -124c0 -52 63 -41 63 -90c0 -28 -23 -47 -55 -47
c-42 0 -71 38 -71 94c0 100 84 178 192 178c112 0 194 -78 194 -186z" />
    <glyph glyph-name="three" unicode="3" horiz-adv-x="520" 
d="M152 615c0 -46 37 -35 37 -72c0 -27 -22 -46 -54 -46c-33 0 -58 23 -58 56c0 86 76 151 176 151c106 0 175 -65 175 -163c0 -66 -52 -145 -112 -173c86 -30 128 -90 128 -187c0 -119 -82 -196 -204 -196c-110 0 -186 63 -186 155c0 45 26 75 63 75c33 0 57 -21 57 -49
c0 -46 -51 -37 -51 -85c0 -40 56 -84 107 -84c72 0 114 68 114 186c0 114 -33 176 -92 176c-30 0 -48 -2 -60 -2c-20 0 -30 3 -30 9c0 7 10 12 31 12c10 0 31 -4 51 -4c59 0 89 58 89 166c0 99 -30 153 -89 153c-45 0 -92 -40 -92 -78z" />
    <glyph glyph-name="four" unicode="4" horiz-adv-x="490" 
d="M319 704h40c-4 -72 -4 -72 -4 -193v-292h102v-37h-102v-96c0 -57 8 -63 74 -63h5v-23h-251v23h12c65 0 73 6 73 63v96h-238v37zM268 219v338l-194 -338h194z" />
    <glyph glyph-name="five" unicode="5" horiz-adv-x="518" 
d="M434 708c0 0 -19 -108 -158 -108c-31 0 -65 4 -109 16l-15 -201c46 21 72 28 107 28c115 0 193 -96 193 -227c0 -142 -85 -231 -218 -231c-137 0 -173 104 -173 153c0 40 29 71 64 71c33 0 57 -21 57 -48c0 -49 -49 -30 -49 -84c0 -40 51 -81 99 -81
c102 0 122 124 122 214c0 128 -43 214 -117 214c-33 0 -60 -13 -88 -46c-3 -36 -18 -54 -40 -54c-18 0 -31 7 -31 18c0 15 6 26 24 46c12 125 20 231 24 316c89 -27 121 -32 175 -32c47 0 70 5 110 29z" />
    <glyph glyph-name="six" unicode="6" 
d="M75 306c0 187 73 398 248 398c81 0 141 -46 141 -109c0 -34 -25 -58 -58 -58c-32 0 -55 18 -55 45c0 25 17 41 17 63c0 30 -17 48 -44 48c-132 0 -145 -264 -152 -369c39 65 81 93 137 93c98 0 171 -84 171 -199c0 -76 -40 -228 -198 -228c-126 0 -207 123 -207 316z
M180 196c0 -68 27 -194 104 -194c60 0 97 78 97 209c0 110 -36 176 -94 176c-67 0 -107 -72 -107 -191z" />
    <glyph glyph-name="seven" unicode="7" horiz-adv-x="473" 
d="M49 479l27 229c93 -10 110 -12 183 -12c52 0 121 4 174 12v-19c-4 -11 -6 -18 -7 -20l-39 -98c-80 -222 -101 -308 -101 -432c0 -15 1 -30 1 -46c0 -77 -17 -107 -60 -107c-34 0 -57 24 -57 60c0 84 60 249 132 421l67 171c-24 -6 -105 -6 -116 -6c-36 2 -78 7 -106 7
c-22 0 -28 -12 -40 -91l-17 -73z" />
    <glyph glyph-name="eight" unicode="8" horiz-adv-x="543" 
d="M342 377c56 -39 129 -96 129 -183c0 -128 -85 -209 -211 -209c-117 0 -192 65 -192 162v13c0 94 69 154 131 192c-59 38 -104 66 -104 169c0 106 76 183 181 183c99 0 171 -63 171 -150c0 -68 -42 -134 -105 -177zM309 304l-77 36c-63 -42 -88 -93 -88 -180
c0 -93 45 -149 121 -149c81 0 132 55 132 139c0 78 -25 125 -88 154zM260 417l55 -26c47 57 62 96 62 157c0 87 -41 145 -104 145c-64 0 -106 -52 -106 -128c0 -68 28 -112 93 -148z" />
    <glyph glyph-name="nine" unicode="9" horiz-adv-x="552" 
d="M475 370c0 -143 -50 -380 -250 -380c-80 0 -140 40 -140 100c0 32 26 58 60 58c29 0 54 -20 54 -45c0 -26 -18 -38 -18 -64s18 -37 45 -37c127 0 139 214 153 361c-45 -70 -81 -94 -140 -94c-97 0 -169 84 -169 200c0 131 86 235 195 235c127 0 210 -131 210 -334z
M269 693c-81 0 -101 -126 -101 -206c0 -121 35 -189 96 -189c42 0 105 41 105 183c0 128 -40 212 -100 212z" />
    <glyph glyph-name="colon" unicode=":" horiz-adv-x="210" 
d="M103 381c31 0 56 -29 56 -62c0 -35 -25 -63 -57 -63c-30 0 -55 28 -55 63c0 33 25 62 56 62zM104 111c31 0 56 -29 56 -62c0 -35 -25 -63 -57 -63c-30 0 -55 28 -55 63c0 33 25 62 56 62z" />
    <glyph glyph-name="semicolon" unicode=";" horiz-adv-x="205" 
d="M55 -146l-21 8c55 40 82 80 82 116c0 15 0 21 -2 21h-2c-2 -1 -11 -1 -14 -1c-35 0 -50 25 -50 46c0 22 20 44 52 44c41 0 58 -40 58 -82c0 -54 -28 -105 -103 -152zM102 378c31 0 56 -29 56 -62c0 -35 -25 -63 -57 -63c-30 0 -55 28 -55 63c0 33 25 62 56 62z" />
    <glyph glyph-name="less" unicode="&#x3c;" horiz-adv-x="477" 
d="M449 366l-335 -164l335 -163v-53l-435 192v48l435 192v-52z" />
    <glyph glyph-name="equal" unicode="=" horiz-adv-x="551" 
d="M60 90v50h431v-50h-431zM60 266v49h431v-49h-431z" />
    <glyph glyph-name="greater" unicode="&#x3e;" horiz-adv-x="478" 
d="M28 366v52l436 -192v-48l-436 -192v53l336 163z" />
    <glyph glyph-name="question" unicode="?" horiz-adv-x="432" 
d="M116 654c0 -42 38 -43 38 -79c0 -23 -23 -41 -51 -41c-34 0 -58 28 -58 64c0 81 70 138 167 138s163 -67 163 -165c0 -69 -19 -100 -101 -187c-52 -54 -62 -83 -62 -175v-14h-44v22c0 201 112 184 112 360c0 91 -33 145 -90 145c-39 0 -74 -33 -74 -68zM189 82
c30 0 55 -22 55 -48c0 -27 -25 -49 -56 -49c-30 0 -56 22 -56 49c0 26 26 48 57 48z" />
    <glyph glyph-name="at" unicode="@" horiz-adv-x="783" 
d="M174 299c0 140 128 235 220 235c41 0 71 -25 83 -67l14 62h100l-77 -285c-3 -15 -3 -26 -3 -35c0 -24 10 -42 22 -42c60 0 151 135 151 264s-97 285 -272 285c-181 0 -311 -149 -311 -355c0 -207 132 -355 318 -355c103 0 190 55 252 162h69c-22 -39 -133 -182 -332 -182
c-213 0 -375 160 -375 370c0 250 194 380 374 380c188 0 343 -134 343 -298c0 -156 -131 -284 -250 -284c-46 0 -78 21 -78 51c0 13 0 22 5 37c-41 -60 -72 -81 -114 -81c-44 0 -139 28 -139 138zM408 525c-59 0 -129 -161 -129 -258c0 -62 16 -98 48 -98
c71 0 126 193 126 264c0 57 -17 92 -45 92z" />
    <glyph glyph-name="A" unicode="A" horiz-adv-x="621" 
d="M326 730l242 -706h58v-24h-268v24h99l-68 219h-216l-65 -219h116v-24h-229v24h55l237 706h39zM282 585l-95 -309h189z" />
    <glyph glyph-name="B" unicode="B" horiz-adv-x="589" 
d="M13 722h307c109 0 208 -43 208 -183c0 -77 -77 -142 -137 -161c115 -25 169 -86 169 -188c0 -119 -89 -190 -238 -190h-309v24h91v674h-91v24zM204 384h73c106 0 146 44 146 156c0 114 -35 158 -131 158h-34c-43 0 -54 -11 -54 -63v-251zM204 363v-263
c0 -70 6 -76 46 -76h36c119 0 163 31 163 169c0 149 -55 170 -173 170h-72z" />
    <glyph glyph-name="C" unicode="C" horiz-adv-x="594" 
d="M540 730l12 -274h-41c-21 87 -64 265 -190 265c-164 0 -171 -285 -171 -371c0 -236 59 -349 181 -349c119 0 160 137 177 236h43l-11 -237h-38v55c-42 -46 -110 -70 -181 -70c-168 0 -289 154 -289 369c0 160 95 383 290 383c62 0 124 -11 182 -83v76h36z" />
    <glyph glyph-name="D" unicode="D" horiz-adv-x="648" 
d="M614 365c0 -173 -63 -365 -314 -365h-287v24h91v674h-91v24h272c98 0 161 -17 207 -52c79 -60 122 -169 122 -305zM250 24h58c133 0 188 93 188 337c0 240 -59 337 -202 337h-44c-38 0 -45 -6 -45 -69v-537c0 -64 7 -68 45 -68z" />
    <glyph glyph-name="E" unicode="E" horiz-adv-x="589" 
d="M319 24c126 0 166 59 194 228h42l-17 -252h-525v24h91v674h-91v24h515l11 -240h-41c-28 202 -82 216 -198 216h-44c-43 0 -52 -7 -52 -63v-262h136v127h44v-285h-44v138h-136v-266c0 -47 16 -63 59 -63h56z" />
    <glyph glyph-name="F" unicode="F" horiz-adv-x="555" 
d="M522 722l12 -240h-42c-24 178 -60 219 -198 219h-38c-43 0 -52 -10 -52 -66v-262h136v143h44v-315h-44v152h-136v-329h105v-24h-296v24h91v674h-91v24h509z" />
    <glyph glyph-name="G" unicode="G" horiz-adv-x="654" 
d="M330 4c57 0 143 31 143 214v76h-91v24h274v-24h-89v-309h-39l-31 98c-55 -68 -104 -95 -175 -95c-116 0 -289 93 -289 361c0 265 163 388 298 388c62 0 136 -35 186 -113v108h36l12 -267h-41c-34 170 -101 256 -196 256c-115 0 -178 -130 -178 -372
c0 -290 108 -345 180 -345z" />
    <glyph glyph-name="H" unicode="H" horiz-adv-x="688" 
d="M483 358h-279v-334h92v-24h-283v24h90v674h-90v24h283v-24h-92v-307h279v307h-88v24h280v-24h-91v-674h91v-24h-283v24h91v334z" />
    <glyph glyph-name="I" unicode="I" horiz-adv-x="309" 
d="M205 698v-674h91v-24h-283v24h91v674h-91v24h283v-24h-91z" />
    <glyph glyph-name="J" unicode="J" horiz-adv-x="473" 
d="M378 262c0 -169 -30 -277 -193 -277c-138 0 -171 102 -171 160c0 68 37 118 87 118c40 0 68 -28 68 -66c0 -33 -25 -58 -57 -58c-10 0 -17 1 -31 5h-3c-4 0 -6 -15 -6 -33c0 -29 20 -110 98 -110c95 0 107 123 107 262v435h-90v24h282v-24h-91v-436z" />
    <glyph glyph-name="K" unicode="K" horiz-adv-x="671" 
d="M204 311l305 387h-136v24h266v-23c-50 0 -102 -32 -143 -85l-126 -164l205 -370c24 -49 35 -57 80 -57h19v-23h-295v24h116l-194 360l-97 -131v-229h93v-24h-284v24h91v674h-91v24h284v-24h-93v-387z" />
    <glyph glyph-name="L" unicode="L" horiz-adv-x="553" 
d="M299 24c114 0 171 48 195 235h42l-18 -259h-505v24h91v674h-91v24h283v-24h-90v-615c0 -40 1 -59 57 -59h36z" />
    <glyph glyph-name="M" unicode="M" horiz-adv-x="783" 
d="M238 722l161 -554l154 554h217v-24h-91v-674h91v-24h-284v24h92v661l-185 -685h-37l-199 685v-661h99v-24h-248v24h98v674h-91v24h223z" />
    <glyph glyph-name="N" unicode="N" horiz-adv-x="678" 
d="M190 722l334 -553v529h-97v24h246v-24c-66 0 -98 -18 -98 -152v-546h-40l-375 611v-587h98v-24h-246v24h97v674h-98v24h179z" />
    <glyph glyph-name="O" unicode="O" horiz-adv-x="653" 
d="M329 737c164 0 291 -164 291 -376c0 -214 -127 -376 -294 -376s-294 162 -294 375c0 178 98 377 297 377zM328 721c-168 0 -178 -252 -178 -358c0 -102 8 -362 176 -362c169 0 176 256 176 360c0 99 -7 360 -174 360z" />
    <glyph glyph-name="P" unicode="P" horiz-adv-x="563" 
d="M312 722c195 0 232 -114 232 -190s-35 -135 -96 -169c-34 -19 -73 -28 -151 -28h-92v-311h98v-24h-290v24h91v674h-91v24h299zM205 356h99c87 0 129 56 129 172c0 120 -40 170 -126 170h-54c-44 0 -48 -2 -48 -63v-279z" />
    <glyph glyph-name="Q" unicode="Q" horiz-adv-x="654" 
d="M31 363c0 182 111 374 294 374c164 0 296 -162 296 -365c0 -130 -46 -244 -133 -332c27 -129 45 -178 70 -178c19 0 27 25 30 96h44c0 -91 -42 -147 -111 -147c-70 0 -114 70 -117 192c-27 -9 -45 -12 -73 -12c-167 0 -300 165 -300 372zM317 248
c121 0 140 -140 148 -150c29 67 37 142 37 268c0 170 -31 355 -176 355c-148 0 -177 -204 -177 -358c0 -128 15 -216 45 -274c-3 16 -3 28 -3 35c0 73 54 124 126 124zM399 38v18c0 112 -31 176 -86 176c-45 0 -76 -52 -76 -130c0 -60 33 -95 86 -95c31 0 51 8 76 31z" />
    <glyph glyph-name="R" unicode="R" horiz-adv-x="612" 
d="M205 362v-338h91v-24h-283v24h90v674h-90v24h295c145 0 228 -63 228 -172c0 -104 -59 -165 -181 -186c67 -21 99 -51 118 -150l11 -86c14 -82 24 -92 41 -92c22 0 31 32 34 107h41c-3 -105 -36 -153 -107 -153c-70 0 -102 44 -113 151l-10 79c-12 62 -17 142 -119 142
h-46zM295 383c106 0 129 72 129 166c0 105 -37 149 -118 149h-45c-52 0 -56 -1 -56 -46v-269h90z" />
    <glyph glyph-name="S" unicode="S" horiz-adv-x="616" 
d="M339 0c110 0 137 101 137 163c0 133 -93 145 -123 154l-80 25c-125 37 -172 89 -172 193c0 121 76 202 188 202h4c96 0 154 -36 182 -117v102h36l10 -237h-41c-20 96 -76 235 -190 235c-70 0 -116 -57 -116 -140c0 -72 33 -122 108 -145l90 -28c62 -17 177 -43 177 -213
c0 -138 -93 -210 -218 -210c-73 0 -164 38 -204 110l1 -106h-37l-3 273h40c21 -130 84 -261 211 -261z" />
    <glyph glyph-name="T" unicode="T" horiz-adv-x="586" 
d="M206 703c-56 0 -116 -44 -141 -244h-41l12 263h512l14 -263h-42c-18 147 -56 244 -140 244c-25 0 -36 -17 -36 -54v-625h96v-24h-295v24h97v625c0 37 -10 54 -36 54z" />
    <glyph glyph-name="U" unicode="U" horiz-adv-x="677" 
d="M333 -15c-229 0 -239 166 -239 208v505h-89v24h283v-24h-92v-440c0 -102 5 -129 27 -169c28 -51 75 -81 133 -81c67 0 120 40 148 111c15 38 19 73 19 160v419h-96v24h247v-24h-98v-425c0 -112 -17 -288 -243 -288z" />
    <glyph glyph-name="V" unicode="V" horiz-adv-x="630" 
d="M341 131l168 567h-113v24h235v-24h-12c-45 0 -73 -22 -99 -108l-186 -605h-38l-241 713h-55v24h268v-24h-36c-36 0 -55 -11 -55 -39c0 -7 3 -23 7 -37z" />
    <glyph glyph-name="W" unicode="W" horiz-adv-x="831" 
d="M295 159l95 413l-34 126h-61v24h251v-24h-34c-30 0 -39 -16 -39 -38c0 -11 2 -24 5 -37l114 -464l130 539h-105v24h213v-24h-6c-54 0 -78 -74 -88 -116l-146 -597h-37l-136 517l-124 -517h-41l-198 713h-53v24h245v-24h-42c-24 0 -32 -18 -32 -38c0 -9 2 -18 4 -27z" />
    <glyph glyph-name="X" unicode="X" horiz-adv-x="622" 
d="M348 402l198 -378h79v-24h-283v24h26c38 1 53 15 53 36c0 11 -3 24 -10 37l-122 225l-164 -298h130v-24h-246v24h5c43 0 75 27 109 87l136 241l-197 346h-53v24h266v-23h-35c-29 0 -37 -7 -37 -27c0 -5 3 -16 9 -26l109 -215l135 267h-104v24h238v-23h-16
c-44 0 -77 -19 -120 -100z" />
    <glyph glyph-name="Y" unicode="Y" horiz-adv-x="618" 
d="M342 341l155 357h-125v24h247v-23h-10c-69 0 -96 -74 -114 -116l-126 -281v-278h97v-24h-296v24h98v265l-210 409h-59v24h276v-23h-52c-23 0 -30 -15 -30 -32c0 -14 3 -30 8 -40z" />
    <glyph glyph-name="Z" unicode="Z" horiz-adv-x="520" 
d="M273 24c121 0 150 89 169 240h45l-15 -264h-456v24l345 674h-106c-112 0 -143 -40 -170 -213h-44l18 237h423v-24l-346 -674h137z" />
    <glyph glyph-name="bracketleft" unicode="[" horiz-adv-x="262" 
d="M140 -93h118v-15h-198v830h198v-15h-118v-800z" />
    <glyph glyph-name="backslash" unicode="\" horiz-adv-x="386" 
d="M51 737l338 -737h-53l-338 737h53z" />
    <glyph glyph-name="bracketright" unicode="]" horiz-adv-x="260" 
d="M120 708h-116v14h196v-830h-196v16h116v800z" />
    <glyph glyph-name="asciicircum" unicode="^" horiz-adv-x="460" 
d="M444 318h-77l-137 337l-138 -337h-77l177 404h76z" />
    <glyph glyph-name="underscore" unicode="_" horiz-adv-x="417" 
d="M-5 -73h427v-61h-427v61z" />
    <glyph glyph-name="grave" unicode="`" horiz-adv-x="246" 
d="M222 535h-39l-132 118c-10 8 -22 20 -22 30c0 13 14 23 32 23c14 0 22 -6 44 -31z" />
    <glyph glyph-name="a" unicode="a" horiz-adv-x="485" 
d="M300 287c0 51 -9 115 -81 115c-41 0 -77 -22 -77 -49s19 -31 19 -51c0 -19 -22 -32 -49 -32c-32 0 -52 17 -52 43c0 58 74 99 173 99c152 0 152 -88 152 -131v-185c0 -56 10 -77 31 -77c18 0 52 10 52 14c0 -19 -43 -45 -83 -45c-42 0 -65 26 -79 72
c-38 -46 -79 -72 -140 -72c-78 0 -132 37 -132 92c0 65 70 123 266 162v45zM300 223c-72 -17 -172 -31 -172 -131c0 -49 29 -86 67 -86s67 25 88 63c14 26 17 40 17 100v54z" />
    <glyph glyph-name="b" unicode="b" horiz-adv-x="504" 
d="M164 0h-156v15h72v700h-74v15h158v-381c31 43 70 63 120 63c102 0 179 -89 179 -209c0 -119 -75 -215 -179 -215c-56 0 -93 23 -120 76v-64zM368 191c0 170 -61 202 -101 202s-100 -37 -100 -188c0 -113 39 -196 101 -196s100 74 100 182z" />
    <glyph glyph-name="c" unicode="c" horiz-adv-x="409" 
d="M268 306c0 29 22 25 22 54c0 24 -22 42 -46 42c-65 0 -106 -80 -106 -200c0 -116 41 -189 109 -189c45 0 76 26 102 93l38 -5c-38 -81 -82 -113 -160 -113c-109 0 -184 83 -184 205c0 127 82 219 195 219c79 0 138 -42 138 -94c0 -29 -23 -48 -54 -48s-54 15 -54 36z" />
    <glyph glyph-name="d" unicode="d" horiz-adv-x="502" 
d="M342 0v64c-27 -53 -64 -76 -120 -76c-104 0 -179 96 -179 215c0 120 77 209 179 209c50 0 89 -20 120 -63v366h-93v15h177v-715h73v-15h-157zM239 393c-40 0 -101 -32 -101 -202c0 -108 38 -182 100 -182s102 83 102 196c0 151 -60 188 -101 188z" />
    <glyph glyph-name="e" unicode="e" horiz-adv-x="452" 
d="M138 194c0 -81 24 -188 121 -188c59 0 96 27 132 98l32 -8c-36 -72 -95 -108 -179 -108c-135 1 -201 97 -201 213c0 127 86 211 199 211c107 0 181 -65 181 -183v-2h-284c-1 -11 -1 -22 -1 -33zM140 242h154c19 1 34 33 34 53c0 83 -33 107 -88 107
c-58 0 -100 -113 -100 -160z" />
    <glyph glyph-name="f" unicode="f" horiz-adv-x="291" 
d="M97 558c0 69 18 172 171 172c72 0 115 -25 115 -65c0 -23 -20 -37 -50 -37c-28 0 -49 13 -49 30s12 19 12 38c0 18 -9 27 -26 27c-35 0 -88 -22 -88 -148v-175h98v-17h-98v-368h83v-15h-239v15h71v368h-79v17h79v158z" />
    <glyph glyph-name="g" unicode="g" horiz-adv-x="439" 
d="M226 146c-26 0 -47 6 -52 6c-27 0 -78 -24 -78 -47c0 -34 66 -35 138 -35h12c59 0 168 -43 168 -132c0 -79 -62 -138 -202 -138c-119 0 -186 43 -186 101c0 16 12 38 30 60l71 -26c-12 -12 -24 -36 -24 -53c0 -47 43 -74 116 -74c97 0 112 55 112 111
c0 36 -34 86 -112 87h-13c-108 0 -160 24 -160 80v6c0 40 48 63 81 72c-44 20 -71 63 -71 113c0 76 71 135 177 135c44 0 72 -7 110 -30c31 15 40 30 40 42c0 17 -16 30 -16 41c0 31 17 40 37 40h1c20 0 35 -17 35 -48c-13 -50 -40 -69 -76 -89c28 -27 36 -56 36 -88
c0 -113 -138 -134 -174 -134zM231 403c-58 0 -91 -52 -91 -126c0 -72 33 -116 88 -116s88 44 88 118c0 73 -30 124 -85 124z" />
    <glyph glyph-name="h" unicode="h" horiz-adv-x="521" 
d="M-3 715v15h167v-400c39 57 82 82 139 82c117 0 141 -71 141 -164v-233h70v-15h-227v15h70v238c0 49 -8 135 -80 135h-1c-70 0 -112 -119 -112 -185v-188h73v-15h-228v15h70v700h-82z" />
    <glyph glyph-name="i" unicode="i" horiz-adv-x="263" 
d="M184 400v-385h74v-15h-230v15h71v370h-82v15h167zM138 596c25 0 47 -21 47 -49s-22 -48 -47 -48c-26 0 -48 20 -48 48s22 49 48 49z" />
    <glyph glyph-name="j" unicode="j" horiz-adv-x="251" 
d="M196 24c0 -98 -3 -224 -153 -224c-57 0 -97 24 -97 59c0 21 22 37 51 37c24 0 46 -12 46 -27c0 -9 -10 -13 -10 -34c0 -14 7 -26 18 -26c49 0 61 78 61 173v403h-87v15h171v-376zM154 598c24 0 46 -21 46 -49s-22 -48 -46 -48c-26 0 -48 20 -48 48s22 49 48 49z" />
    <glyph glyph-name="k" unicode="k" horiz-adv-x="489" 
d="M159 191l182 194h-114v15h225v-15c-58 -6 -97 -29 -146 -81l-37 -47l120 -183c34 -50 51 -55 99 -59v-15h-229v15h75l-125 196l-50 -56v-140h65v-15h-216v15h66v700h-77v15h162v-539z" />
    <glyph glyph-name="l" unicode="l" horiz-adv-x="246" 
d="M0 715v15h164v-715h75v-15h-230v15h71v700h-80z" />
    <glyph glyph-name="m" unicode="m" horiz-adv-x="780" 
d="M95 385h-76v15h161v-70c34 56 74 82 126 82c60 0 109 -38 125 -91c38 61 78 91 137 91c94 0 136 -61 136 -145v-252h72v-15h-230v15h72v236c0 49 -9 135 -74 135c-62 0 -101 -63 -101 -164v-207h71v-15h-230v15h72v246c0 52 -10 125 -74 125c-58 0 -102 -65 -102 -155
v-216h73v-15h-228v15h70v370z" />
    <glyph glyph-name="n" unicode="n" horiz-adv-x="533" 
d="M178 400v-63c38 50 82 75 139 75c96 -1 141 -74 141 -168v-229h70v-15h-227v15h70v234c0 44 -21 137 -80 137c-97 0 -113 -123 -113 -190v-181h73v-15h-228v15h70v370h-70v15h155z" />
    <glyph glyph-name="o" unicode="o" horiz-adv-x="462" 
d="M235 412c104 0 189 -96 189 -213s-85 -211 -191 -211c-107 0 -191 94 -191 211c0 120 84 213 193 213zM235 402c-65 0 -98 -68 -98 -202c0 -131 34 -202 96 -202s97 71 97 202s-35 202 -95 202z" />
    <glyph glyph-name="p" unicode="p" horiz-adv-x="509" 
d="M171 400v-76c28 57 67 88 120 88c100 0 177 -90 177 -204c0 -120 -77 -220 -182 -220c-52 0 -87 21 -115 71v-244h80v-15h-235v15h71v569h-71v16h155zM278 393c-57 0 -106 -118 -106 -205c0 -98 41 -181 103 -181s97 80 97 205c0 114 -34 181 -94 181z" />
    <glyph glyph-name="q" unicode="q" horiz-adv-x="491" 
d="M406 400h36c-12 -70 -14 -44 -14 -127v-458h70v-15h-235v15h79v236c-35 -46 -65 -63 -117 -63c-106 0 -183 84 -183 197c0 124 82 227 192 227c55 0 99 -24 134 -73zM342 204c0 165 -61 199 -101 199c-69 0 -103 -78 -103 -214c0 -116 38 -182 102 -182
c68 0 102 65 102 197z" />
    <glyph glyph-name="r" unicode="r" horiz-adv-x="399" 
d="M296 378c-82 -11 -118 -171 -118 -268v-95h86v-15h-240v15h70v370h-74v15h158v-121c28 77 75 121 129 121c48 0 78 -23 78 -55c0 -26 -22 -44 -55 -44c-28 0 -49 14 -49 33s3 29 15 44z" />
    <glyph glyph-name="s" unicode="s" horiz-adv-x="415" 
d="M353 400v-119h-34v2c0 49 -60 118 -112 118c-48 0 -97 -32 -97 -77c0 -61 46 -72 94 -84l45 -10c74 -13 131 -36 131 -128c0 -76 -71 -114 -159 -114c-44 0 -103 14 -139 44v-32h-33v143h39c20 -94 62 -145 135 -145c52 0 98 37 98 87c0 45 -23 67 -93 88l-47 10
c-64 14 -127 34 -127 110c0 71 73 119 152 119c45 0 80 -16 113 -41v29h34z" />
    <glyph glyph-name="t" unicode="t" horiz-adv-x="355" 
d="M335 138c0 -64 -27 -150 -134 -150c-111 0 -114 66 -114 135v260h-72v17c70 5 109 81 118 175h40v-175h122v-17h-122v-263c0 -47 5 -108 50 -108c42 0 65 42 68 126h44z" />
    <glyph glyph-name="u" unicode="u" horiz-adv-x="531" 
d="M247 16c47 0 117 34 117 188v181h-86v15h170v-384h79v-16h-163v70c-39 -57 -79 -82 -137 -82c-105 0 -140 50 -140 132v265h-72v15h158v-267c0 -60 6 -117 74 -117z" />
    <glyph glyph-name="v" unicode="v" horiz-adv-x="456" 
d="M251 83l101 302h-76v15h174v-15h-6c-31 0 -64 -22 -86 -86l-111 -311h-32l-160 397h-49v15h204v-15h-14c-27 0 -43 0 -43 -23c0 -8 1 -17 5 -30z" />
    <glyph glyph-name="w" unicode="w" horiz-adv-x="649" 
d="M463 91l103 294h-84v15h166v-11h-9c-28 0 -40 -18 -60 -74l-119 -327h-27l-104 288l-100 -288h-31l-147 397h-43v15h190v-15h-15c-26 0 -34 -8 -34 -23c0 -8 2 -17 5 -29l79 -238l93 290h-87v15h194v-15h-22c-22 0 -32 -14 -32 -31c0 -6 1 -15 4 -21z" />
    <glyph glyph-name="x" unicode="x" horiz-adv-x="461" 
d="M266 210l141 -195h49v-15h-218v15h9c31 0 41 10 41 24c0 10 -3 23 -11 35l-57 84l-120 -143h93v-15h-181v9h5c24 0 50 19 76 50l103 125l-142 201h-37v15h204v-11h-13c-24 0 -34 -8 -34 -28c0 -8 2 -20 7 -28l63 -95l108 147h-95v15h180v-15h-10c-21 0 -41 -9 -61 -36z
" />
    <glyph glyph-name="y" unicode="y" horiz-adv-x="449" 
d="M80 -132c0 -8 -6 -21 -6 -30c0 -14 4 -23 10 -23c26 0 61 51 93 121l33 73l-152 376h-52v15h206v-15h-19c-25 0 -36 -12 -36 -29c0 -6 2 -15 5 -22l89 -234l102 285h-78v15h174v-10h-8c-31 0 -46 -19 -68 -76l-96 -248c-78 -202 -131 -266 -218 -266c-45 0 -79 23 -79 53
c0 24 22 41 53 41c26 0 47 -11 47 -26z" />
    <glyph glyph-name="z" unicode="z" horiz-adv-x="405" 
d="M361 400v-15l-234 -370h88c74 0 105 35 114 125h38l-6 -140h-332v15l234 370h-75c-67 0 -96 -35 -104 -117h-39l8 132h308z" />
    <glyph glyph-name="braceleft" unicode="{" horiz-adv-x="221" 
d="M72 581c0 82 14 141 111 141h24v-10c-53 -4 -66 -34 -66 -141v-135c0 -71 -11 -95 -56 -129c45 -34 56 -58 56 -130v-134c0 -108 13 -138 66 -142v-9h-24c-106 0 -111 74 -111 140v121c0 111 -5 123 -63 146v15c61 27 63 47 63 147v120z" />
    <glyph glyph-name="bar" unicode="|" horiz-adv-x="186" 
d="M126 722v-722h-66v722h66z" />
    <glyph glyph-name="braceright" unicode="}" horiz-adv-x="221" 
d="M37 722c102 0 111 -68 111 -141v-120c0 -102 2 -122 63 -147v-15c-59 -25 -63 -42 -63 -146v-121c0 -81 -14 -140 -111 -140h-23v9c52 4 66 34 66 142v134c0 72 11 96 56 130c-45 34 -56 58 -56 129v135c0 107 -14 137 -66 141v10h23z" />
    <glyph glyph-name="asciitilde" unicode="~" horiz-adv-x="498" 
d="M82 186l-48 31c31 66 80 110 121 110c22 0 41 -9 85 -38l39 -27c44 -35 48 -38 65 -38c24 0 49 30 72 81l49 -31c-33 -66 -80 -109 -122 -109c-21 0 -42 8 -84 36l-39 28c-49 36 -49 38 -66 38c-24 0 -49 -30 -72 -81z" />
    <glyph glyph-name="uni00A0" unicode="&#xa0;" horiz-adv-x="300" 
 />
    <glyph glyph-name="exclamdown" unicode="&#xa1;" horiz-adv-x="282" 
d="M87 -120c0 120 34 102 34 459h37c2 -361 35 -338 35 -460c0 -53 -18 -81 -54 -81c-34 0 -52 28 -52 82zM140 549c29 0 53 -22 53 -49c0 -26 -24 -48 -54 -48c-28 0 -53 22 -53 48c0 27 25 49 54 49z" />
    <glyph glyph-name="cent" unicode="&#xa2;" horiz-adv-x="409" 
d="M200 27v361c-39 -28 -62 -96 -62 -186c0 -86 23 -149 62 -175zM268 306c0 29 22 25 22 54c0 22 -18 39 -40 42v-389c43 1 74 27 99 93l38 -5c-34 -73 -73 -106 -137 -112v-89h-50v90c-94 13 -157 91 -157 203s64 197 157 215v92h50v-88c73 -4 126 -45 126 -94
c0 -29 -23 -48 -54 -48s-54 15 -54 36z" />
    <glyph glyph-name="sterling" unicode="&#xa3;" horiz-adv-x="468" 
d="M199 552v-9c0 -13 2 -30 26 -182h143v-25h-135c8 -40 10 -66 10 -103c0 -54 -8 -105 -23 -143c44 -36 68 -47 99 -47c54 0 82 25 105 95l34 -7c-20 -95 -71 -146 -144 -146c-42 0 -80 18 -128 62c-34 -44 -60 -62 -97 -62c-44 0 -76 27 -76 67c0 44 34 73 83 73
c20 0 38 -5 70 -22c3 28 4 43 4 61c0 48 -7 92 -27 172h-113v25h101c-18 80 -22 110 -22 153c0 113 70 190 170 190c88 0 152 -55 152 -132c0 -42 -27 -71 -63 -71c-32 0 -54 19 -54 45c0 51 52 26 52 80c0 33 -37 67 -74 67c-59 0 -93 -53 -93 -141zM149 66
c-25 35 -42 50 -62 50c-17 0 -33 -27 -33 -61s17 -62 38 -62c23 0 40 20 57 73z" />
    <glyph glyph-name="currency" unicode="&#xa4;" horiz-adv-x="567" 
d="M423 544l47 53l49 -38l-48 -55c32 -46 47 -104 47 -162c0 -57 -15 -112 -48 -158l49 -48l-49 -43l-49 43c-39 -28 -88 -42 -135 -42c-49 0 -105 15 -145 50l-46 -51l-49 43l49 50c-32 49 -48 105 -48 163c0 55 17 114 48 158l-49 52l49 38l49 -54c41 35 87 53 135 53
c51 0 102 -16 144 -52zM285 543h-4c-98 0 -175 -81 -175 -196c0 -118 80 -199 175 -199c102 0 179 72 179 197c0 120 -78 198 -175 198z" />
    <glyph glyph-name="yen" unicode="&#xa5;" horiz-adv-x="477" 
d="M292 157v-56c0 -69 2 -78 55 -78h19v-23h-246v23h18c49 0 53 6 53 64v70h-97v26h97v111h-97v27h81l-117 324c-15 44 -23 54 -47 54h-13v23h201v-23h-23c-14 0 -20 -9 -20 -33c0 -10 2 -24 6 -36l103 -289l74 238c6 20 10 42 10 61c0 41 -11 59 -36 59h-17v23h178v-23h-6
c-49 0 -72 -88 -81 -118l-83 -260h85v-27h-97v-111h97v-26h-97z" />
    <glyph glyph-name="brokenbar" unicode="&#xa6;" horiz-adv-x="186" 
d="M126 722v-309h-66v309h66zM126 310v-310h-66v310h66z" />
    <glyph glyph-name="section" unicode="&#xa7;" horiz-adv-x="377" 
d="M211 632c0 30 29 22 29 58c0 23 -25 42 -50 42c-38 0 -65 -35 -65 -86c0 -33 13 -66 56 -111l92 -96c13 -13 82 -84 82 -157c-1 -76 -46 -138 -123 -140c25 -35 88 -124 88 -170c0 -68 -56 -120 -131 -120c-65 0 -122 46 -122 99c0 22 22 40 49 40c28 0 49 -14 49 -35
c0 -32 -29 -18 -29 -58c0 -22 25 -42 50 -42c39 0 69 34 69 85c0 41 -14 67 -76 136l-64 67c-69 64 -94 110 -94 172c0 97 81 126 119 128c-57 100 -79 111 -79 172c0 70 53 120 127 120c65 0 121 -46 121 -97c0 -23 -22 -41 -49 -41c-28 0 -49 15 -49 34zM293 238
c0 83 -105 202 -153 202c-33 0 -57 -39 -57 -92c0 -87 109 -201 156 -201c29 0 54 43 54 91z" />
    <glyph glyph-name="dieresis" unicode="&#xa8;" horiz-adv-x="356" 
d="M92 644c24 0 45 -24 45 -50c0 -28 -21 -50 -46 -50c-23 0 -44 23 -44 50c0 26 21 50 45 50zM258 644c24 0 45 -24 45 -50c0 -28 -21 -50 -46 -50c-24 0 -44 23 -44 50c0 26 20 50 45 50z" />
    <glyph glyph-name="copyright" unicode="&#xa9;" horiz-adv-x="794" 
d="M550 578l8 -163h-42c-25 108 -62 155 -119 155c-71 0 -106 -74 -106 -214c0 -135 35 -200 111 -200c67 0 105 44 120 138l43 -3c-13 -94 -72 -144 -168 -144c-117 0 -202 89 -202 212c0 121 90 220 202 220c36 0 55 -7 95 -36l20 35h38zM397 737c202 0 369 -168 369 -375
c0 -211 -166 -377 -375 -377c-199 0 -363 171 -363 376c0 207 164 376 369 376zM398 722c-175 0 -315 -161 -315 -361c0 -197 141 -361 310 -361c177 0 318 159 318 362c0 199 -142 360 -313 360z" />
    <glyph glyph-name="ordfeminine" unicode="&#xaa;" horiz-adv-x="337" 
d="M159 730c23 0 106 -8 106 -90v-128c0 -37 5 -51 17 -51c11 0 19 7 23 16c5 0 9 -7 9 -16c0 -6 -28 -12 -54 -12c-25 0 -38 7 -47 28c-24 -22 -56 -33 -94 -33c-34 0 -82 12 -82 59c0 67 129 96 170 105v36c0 56 -10 80 -52 80c-24 0 -48 -12 -48 -35c0 -24 12 -23 12 -34
c0 -10 -14 -16 -32 -16c-22 0 -36 10 -36 22c0 36 46 69 108 69zM139 450c65 0 68 69 68 103v52c-84 -21 -108 -42 -108 -96c0 -38 17 -59 40 -59zM53 348h222v-19h-222v19z" />
    <glyph glyph-name="guillemotleft" unicode="&#xab;" horiz-adv-x="349" 
d="M313 402c0 -21 -33 -44 -80 -160c70 -127 79 -147 79 -157c0 3 -6 5 -14 5h-2c-5 0 -18 6 -91 102l-34 42c-6 4 -12 6 -18 8l93 103c43 48 48 52 54 52c7 0 13 2 13 5zM138 101l-107 133c-5 4 -12 6 -17 8l124 144c9 8 16 11 22 11c7 0 12 2 12 5c0 -8 -16 -21 -37 -68
l-42 -92c70 -127 79 -147 79 -157c0 3 -6 5 -13 5c-6 0 -13 2 -21 11z" />
    <glyph glyph-name="logicalnot" unicode="&#xac;" horiz-adv-x="509" 
d="M18 293h431v-293h-73v230h-358v63z" />
    <glyph glyph-name="sfthyphen" unicode="&#xad;" horiz-adv-x="324" 
d="M312 178h-300v48h300v-48z" />
    <glyph glyph-name="registered" unicode="&#xae;" horiz-adv-x="794" 
d="M262 215v324c0 35 -2 36 -40 36h-21v14h205c102 0 159 -37 159 -101c0 -56 -30 -87 -99 -107c32 -19 46 -42 57 -94l9 -37c8 -55 11 -60 18 -60c9 0 13 23 13 65h43v-5c0 -56 -29 -87 -78 -87c-51 0 -76 25 -82 87l-5 32c-5 70 -25 97 -73 97h-22v-159
c0 -34 2 -38 40 -38h19v-16h-204v16h21c37 0 40 6 40 33zM346 393h51c53 0 77 30 77 94s-20 88 -70 88h-30c-28 0 -28 0 -28 -42v-140zM397 737c202 0 369 -168 369 -375c0 -211 -166 -377 -375 -377c-199 0 -363 171 -363 376c0 207 164 376 369 376zM398 722
c-175 0 -316 -161 -316 -361c0 -197 141 -361 311 -361c177 0 318 159 318 362c0 199 -142 360 -313 360z" />
    <glyph glyph-name="macron" unicode="&#xaf;" horiz-adv-x="324" 
d="M312 644h-300v48h300v-48z" />
    <glyph glyph-name="degree" unicode="&#xb0;" horiz-adv-x="340" 
d="M171 686c70 0 126 -67 126 -153s-56 -153 -128 -153s-128 68 -128 154c0 85 57 152 130 152zM170 658c-43 0 -76 -56 -76 -125s34 -125 75 -125s73 55 73 125c0 69 -32 125 -72 125z" />
    <glyph glyph-name="plusminus" unicode="&#xb1;" horiz-adv-x="469" 
d="M198 240h-179v48h179v177h73v-177h179v-48h-179v-146h-73v146zM19 0v49h431v-49h-431z" />
    <glyph glyph-name="two.superior" unicode="&#xb2;" horiz-adv-x="332" 
d="M274 673c0 -49 -100 -106 -180 -209h130c29 0 29 14 38 34l10 18h38l-20 -124c-8 4 -16 8 -23 8h-211c-10 -1 -19 -4 -30 -8v22c85 120 160 170 160 257c0 48 -17 77 -48 77c-40 0 -50 -43 -50 -54c0 -24 18 -21 18 -39c0 -12 -14 -21 -32 -21c-24 0 -40 18 -40 43
c0 45 52 80 119 80c70 0 121 -35 121 -84z" />
    <glyph glyph-name="three.superior" unicode="&#xb3;" horiz-adv-x="323" 
d="M111 686c0 -35 7 -25 7 -34c0 -6 -14 -10 -34 -10c-21 0 -37 13 -37 31c0 48 49 84 113 84c68 0 112 -34 112 -84c0 -34 -39 -75 -84 -89c65 -16 97 -46 97 -96c0 -61 -54 -101 -135 -101c-73 0 -123 26 -123 65c0 19 19 32 46 32c24 0 42 -9 42 -20
c0 -17 -29 -14 -29 -33c0 -16 29 -34 55 -34c37 0 59 34 59 92c0 56 -16 87 -44 87c-14 0 -23 -2 -29 -2c-10 0 -14 3 -14 8c0 6 4 11 14 11c5 0 14 -3 23 -3c27 0 41 29 41 82c0 49 -13 76 -39 76c-20 0 -41 -32 -41 -62z" />
    <glyph glyph-name="acute" unicode="&#xb4;" horiz-adv-x="246" 
d="M24 535l116 140c22 25 31 31 44 31c17 0 32 -11 32 -23c0 -10 -11 -20 -22 -30l-132 -118h-38z" />
    <glyph glyph-name="uni00B5" unicode="&#xb5;" horiz-adv-x="504" 
d="M344 0v88c-36 -66 -75 -94 -128 -94c-42 0 -73 18 -98 55c0 -47 28 -190 28 -207c0 -36 -18 -61 -44 -61c-27 0 -46 24 -46 59c0 23 25 151 25 174v367l-68 -1v20h153v-239c0 -50 0 -137 69 -137c27 0 109 36 109 130v226h-80v20h163v-380h75v-20h-158z" />
    <glyph glyph-name="paragraph" unicode="&#xb6;" horiz-adv-x="472" 
d="M150 -131c56 0 60 7 60 69v402h-22c-111 0 -170 66 -170 192c0 116 52 190 149 190h286v-10c-50 -5 -54 -11 -54 -60v-701c0 -85 2 -77 54 -82v-13h-308v13h5zM139 489c0 -105 26 -142 64 -142h7v365c-53 0 -71 -35 -71 -139v-84zM337 712h-66v-841h66v841z" />
    <glyph glyph-name="periodcentered" unicode="&#xb7;" horiz-adv-x="226" 
d="M111 309c32 0 58 -28 58 -62c0 -35 -26 -63 -59 -63c-31 0 -59 28 -59 63c0 34 28 62 60 62z" />
    <glyph glyph-name="cedilla" unicode="&#xb8;" horiz-adv-x="227" 
d="M87 -54c41 0 95 -26 95 -72c0 -48 -35 -74 -96 -74c-27 0 -47 4 -68 15l6 7c20 -10 35 -15 52 -15c27 0 44 25 44 64c0 33 -24 58 -58 58h-17l33 75h34z" />
    <glyph glyph-name="one.superior" unicode="&#xb9;" horiz-adv-x="226" 
d="M155 678v-223c0 -31 2 -35 37 -35h24v-20h-201v20h29c33 0 36 3 36 30v210c0 35 -2 37 -25 37h-39v18c48 1 96 19 113 42h30c-3 -34 -4 -56 -4 -79z" />
    <glyph glyph-name="ordmasculine" unicode="&#xba;" horiz-adv-x="328" 
d="M163 733c67 0 119 -69 119 -152c0 -82 -49 -137 -121 -137c-70 0 -118 58 -118 140c0 81 52 149 120 149zM163 722c-38 0 -57 -41 -57 -140c0 -93 18 -134 55 -134c38 0 58 40 58 143c0 89 -20 131 -56 131zM53 348h220v-19h-220v19z" />
    <glyph glyph-name="guillemotright" unicode="&#xbb;" horiz-adv-x="350" 
d="M140 193l-40 -50c-28 -35 -36 -53 -54 -53c-7 0 -12 -2 -12 -5c0 10 10 31 79 158c-68 127 -79 149 -79 159c0 -3 6 -5 12 -5c7 0 12 -3 22 -11l48 -62l76 -81zM280 193l-40 -50c-27 -34 -36 -53 -54 -53c-7 0 -13 -2 -13 -5c0 10 10 31 80 158c-69 127 -80 149 -80 159
c0 -3 7 -5 13 -5s12 -3 22 -11l48 -62c48 -51 72 -78 76 -81z" />
    <glyph glyph-name="onequarter" unicode="&#xbc;" horiz-adv-x="691" 
d="M155 621v-223c0 -31 2 -35 37 -35h24v-20h-201v20h29c33 0 36 3 36 30v210c0 35 -2 37 -25 37h-38v18c47 1 95 19 112 42h30c-3 -34 -4 -56 -4 -79zM575 357h34c-3 -35 -3 -35 -3 -94v-142h51v-33h-51v-41c0 -24 4 -27 37 -27h3v-20h-156v20h6c32 0 36 3 36 27v41h-119
v18zM532 121v147l-97 -147h97zM552 708h50l-424 -708h-50z" />
    <glyph glyph-name="onehalf" unicode="&#xbd;" horiz-adv-x="753" 
d="M155 621v-223c0 -31 2 -35 37 -35h24v-20h-201v20h29c33 0 36 3 36 30v210c0 35 -2 37 -25 37h-38v18c47 1 95 19 112 42h30c-3 -34 -4 -56 -4 -79zM690 269c0 -55 -101 -105 -188 -205h135c30 0 31 16 40 38l11 20h36l-19 -130c-8 4 -16 8 -24 8h-221
c-10 -1 -19 -4 -30 -8v22c91 120 172 170 172 257c0 48 -20 77 -54 77c-45 0 -56 -45 -56 -57c0 -26 31 -18 31 -41c0 -13 -15 -22 -37 -22c-28 0 -48 18 -48 45c0 47 54 84 125 84c73 0 127 -37 127 -88zM530 708h50l-424 -708h-50z" />
    <glyph glyph-name="threequarters" unicode="&#xbe;" horiz-adv-x="689" 
d="M111 652c0 -21 16 -17 16 -35c0 -13 -16 -23 -39 -23s-41 12 -41 29c0 44 48 77 111 77c67 0 111 -34 111 -84c0 -34 -40 -75 -88 -89c68 -16 101 -46 101 -96c0 -61 -53 -101 -133 -101c-72 0 -122 32 -122 79c0 23 20 39 49 39c26 0 44 -10 44 -24
c0 -23 -34 -19 -34 -42c0 -20 28 -42 54 -42c36 0 57 34 57 92c0 56 -15 87 -41 87c-13 0 -22 -2 -27 -2c-9 0 -14 3 -14 8c0 6 4 11 13 11c4 0 13 -3 22 -3c25 0 38 29 38 82c0 49 -13 76 -38 76c-19 0 -39 -20 -39 -39zM572 357h34c-3 -35 -3 -35 -3 -94v-142h51v-33h-51
v-41c0 -24 4 -27 37 -27h3v-20h-156v20h6c32 0 36 3 36 27v41h-119v18zM529 121v147l-97 -147h97zM569 708h50l-424 -708h-50z" />
    <glyph glyph-name="questiondown" unicode="&#xbf;" horiz-adv-x="433" 
d="M317 -120c0 43 -38 40 -38 79c0 23 23 40 51 40c33 0 58 -27 58 -63c0 -81 -70 -138 -167 -138s-163 67 -163 165c0 69 19 101 101 187c51 55 62 83 62 176v13h42v-22c0 -206 -111 -182 -111 -361c0 -91 34 -145 91 -145c39 0 74 34 74 69zM245 549c30 0 55 -22 55 -49
c0 -26 -25 -48 -56 -48s-56 22 -56 48c0 27 25 49 57 49z" />
    <glyph glyph-name="Agrave" unicode="&#xc0;" horiz-adv-x="621" 
d="M326 730l242 -706h58v-24h-268v24h99l-68 219h-216l-65 -219h116v-24h-229v24h55l237 706h39zM282 585l-95 -309h189zM404 797h-39l-126 73c-10 6 -22 20 -22 30c0 13 14 23 32 23h3c12 0 17 -1 41 -21z" />
    <glyph glyph-name="Aacute" unicode="&#xc1;" horiz-adv-x="621" 
d="M326 730l242 -706h58v-24h-268v24h99l-68 219h-216l-65 -219h116v-24h-229v24h55l237 706h39zM282 585l-95 -309h189zM216 797l114 106c24 19 29 20 41 20h3c16 0 32 -11 32 -23c0 -10 -12 -24 -22 -30l-130 -73h-38z" />
    <glyph glyph-name="Acircumflex" unicode="&#xc2;" horiz-adv-x="621" 
d="M326 730l242 -706h58v-24h-268v24h99l-68 219h-216l-65 -219h116v-24h-229v24h55l237 706h39zM282 585l-95 -309h189zM338 907l106 -110h-44l-89 69l-90 -69h-44l105 110h56z" />
    <glyph glyph-name="Atilde" unicode="&#xc3;" horiz-adv-x="621" 
d="M326 730l242 -706h58v-24h-268v24h99l-68 219h-216l-65 -219h116v-24h-229v24h55l237 706h39zM282 585l-95 -309h189zM256 892c48 0 92 -60 122 -60c18 0 34 31 40 72h34c-6 -64 -44 -107 -94 -107s-82 59 -118 59c-18 0 -32 -21 -38 -59h-34c12 58 46 95 88 95z" />
    <glyph glyph-name="Adieresis" unicode="&#xc4;" horiz-adv-x="621" 
d="M326 730l242 -706h58v-24h-268v24h99l-68 219h-216l-65 -219h116v-24h-229v24h55l237 706h39zM282 585l-95 -309h189zM228 898c24 0 44 -24 44 -50c0 -28 -20 -51 -46 -51c-22 0 -44 24 -44 51c0 26 22 50 46 50zM394 898c24 0 44 -24 44 -50c0 -28 -20 -51 -46 -51
c-24 0 -44 24 -44 51c0 26 20 50 46 50z" />
    <glyph glyph-name="Aring" unicode="&#xc5;" horiz-adv-x="621" 
d="M326 730l242 -706h58v-24h-268v24h99l-68 219h-216l-65 -219h116v-24h-229v24h55l237 706h39zM282 585l-95 -309h189zM310 882c48 0 86 -21 86 -74c0 -56 -38 -76 -86 -76c-46 0 -84 21 -84 76c0 53 38 74 84 74zM312 876c-28 0 -50 -18 -50 -69c0 -53 22 -70 48 -70
c28 0 48 16 48 70c0 51 -20 69 -46 69z" />
    <glyph glyph-name="AE" unicode="&#xc6;" horiz-adv-x="854" 
d="M764 482c-23 162 -50 219 -199 219h-20c-44 0 -52 -10 -52 -66v-262h125v127h45v-285h-45v138h-125v-269c0 -34 1 -61 60 -61h29c113 0 165 47 196 229h41l-17 -252h-501v24h91v255h-193l-111 -255h111v-24h-203v24h36l308 674h-140v24h594l12 -240h-42zM392 320v378
c-4 0 -7 -7 -16 -27l-156 -351h172z" />
    <glyph glyph-name="Ccedilla" unicode="&#xc7;" horiz-adv-x="594" 
d="M540 730l12 -274h-41c-21 87 -64 265 -190 265c-164 0 -171 -285 -171 -371c0 -236 59 -349 181 -349c119 0 160 137 177 236h43l-11 -237h-38v55c-42 -46 -110 -70 -181 -70c-7 0 -15 0 -22 1l-19 -48c41 0 94 -26 94 -72c0 -48 -35 -74 -96 -74c-27 0 -46 4 -67 15l5 7
c20 -10 35 -15 52 -15c27 0 44 25 44 64c0 33 -24 58 -58 58h-16l30 69c-140 29 -236 172 -236 364c0 160 95 383 290 383c62 0 124 -11 182 -83v76h36z" />
    <glyph glyph-name="Egrave" unicode="&#xc8;" horiz-adv-x="589" 
d="M319 24c126 0 166 59 194 228h42l-17 -252h-525v24h91v674h-91v24h515l11 -240h-41c-28 202 -82 216 -198 216h-44c-43 0 -52 -7 -52 -63v-262h136v127h44v-285h-44v138h-136v-266c0 -47 16 -63 59 -63h56zM378 797h-40l-126 73c-10 6 -22 20 -22 30c0 13 14 23 32 23h3
c12 0 17 -1 41 -21z" />
    <glyph glyph-name="Eacute" unicode="&#xc9;" horiz-adv-x="589" 
d="M319 24c126 0 166 59 194 228h42l-17 -252h-525v24h91v674h-91v24h515l11 -240h-41c-28 202 -82 216 -198 216h-44c-43 0 -52 -7 -52 -63v-262h136v127h44v-285h-44v138h-136v-266c0 -47 16 -63 59 -63h56zM189 797l114 106c24 19 30 20 41 20h3c17 0 32 -11 32 -23
c0 -10 -11 -24 -22 -30l-130 -73h-38z" />
    <glyph glyph-name="Ecircumflex" unicode="&#xca;" horiz-adv-x="589" 
d="M319 24c126 0 166 59 194 228h42l-17 -252h-525v24h91v674h-91v24h515l11 -240h-41c-28 202 -82 216 -198 216h-44c-43 0 -52 -7 -52 -63v-262h136v127h44v-285h-44v138h-136v-266c0 -47 16 -63 59 -63h56zM312 907l106 -110h-44l-90 69l-90 -69h-44l106 110h56z" />
    <glyph glyph-name="Edieresis" unicode="&#xcb;" horiz-adv-x="589" 
d="M319 24c126 0 166 59 194 228h42l-17 -252h-525v24h91v674h-91v24h515l11 -240h-41c-28 202 -82 216 -198 216h-44c-43 0 -52 -7 -52 -63v-262h136v127h44v-285h-44v138h-136v-266c0 -47 16 -63 59 -63h56zM201 898c24 0 45 -24 45 -50c0 -28 -21 -51 -46 -51
c-23 0 -44 24 -44 51c0 26 21 50 45 50zM367 898c24 0 45 -24 45 -50c0 -28 -21 -51 -46 -51c-24 0 -44 24 -44 51c0 26 20 50 45 50z" />
    <glyph glyph-name="Igrave" unicode="&#xcc;" horiz-adv-x="309" 
d="M205 698v-674h91v-24h-283v24h91v674h-91v24h283v-24h-91zM248 797h-39l-126 73c-10 6 -22 20 -22 30c0 13 14 23 32 23h3c12 0 17 -1 41 -21z" />
    <glyph glyph-name="Iacute" unicode="&#xcd;" horiz-adv-x="309" 
d="M205 698v-674h91v-24h-283v24h91v674h-91v24h283v-24h-91zM60 797l114 106c24 19 29 20 41 20h3c16 0 32 -11 32 -23c0 -10 -12 -24 -22 -30l-130 -73h-38z" />
    <glyph glyph-name="Icircumflex" unicode="&#xce;" horiz-adv-x="309" 
d="M205 698v-674h91v-24h-283v24h91v674h-91v24h283v-24h-91zM182 907l106 -110h-44l-89 69l-90 -69h-44l105 110h56z" />
    <glyph glyph-name="Idieresis" unicode="&#xcf;" horiz-adv-x="309" 
d="M205 698v-674h91v-24h-283v24h91v674h-91v24h283v-24h-91zM72 898c24 0 44 -24 44 -50c0 -28 -20 -51 -46 -51c-22 0 -44 24 -44 51c0 26 22 50 46 50zM238 898c24 0 44 -24 44 -50c0 -28 -20 -51 -46 -51c-24 0 -44 24 -44 51c0 26 20 50 46 50z" />
    <glyph glyph-name="Eth" unicode="&#xd0;" horiz-adv-x="653" 
d="M619 361c0 -168 -63 -361 -314 -361h-287v24h91v337h-91v26h91v311h-91v24h272c98 0 162 -17 207 -52c77 -59 122 -173 122 -309zM209 361v-269c0 -64 7 -68 46 -68h58c134 0 188 92 188 337c0 240 -59 337 -201 337h-45c-39 0 -46 -6 -46 -69v-242h153v-26h-153z" />
    <glyph glyph-name="Ntilde" unicode="&#xd1;" horiz-adv-x="678" 
d="M190 722l334 -553v529h-97v24h246v-24c-66 0 -98 -18 -98 -152v-546h-40l-375 611v-587h98v-24h-246v24h97v674h-98v24h179zM287 892c48 0 92 -60 122 -60c18 0 35 31 40 72h35c-6 -64 -44 -107 -94 -107c-51 0 -83 59 -118 59c-18 0 -32 -21 -38 -59h-34
c11 58 45 95 87 95z" />
    <glyph glyph-name="Ograve" unicode="&#xd2;" horiz-adv-x="653" 
d="M329 737c164 0 291 -164 291 -376c0 -214 -127 -376 -294 -376s-294 162 -294 375c0 178 98 377 297 377zM328 721c-168 0 -178 -252 -178 -358c0 -102 8 -362 176 -362c169 0 176 256 176 360c0 99 -7 360 -174 360zM420 797h-40l-126 73c-10 6 -22 20 -22 30
c0 13 14 23 32 23h3c12 0 17 -1 41 -21z" />
    <glyph glyph-name="Oacute" unicode="&#xd3;" horiz-adv-x="653" 
d="M329 737c164 0 291 -164 291 -376c0 -214 -127 -376 -294 -376s-294 162 -294 375c0 178 98 377 297 377zM328 721c-168 0 -178 -252 -178 -358c0 -102 8 -362 176 -362c169 0 176 256 176 360c0 99 -7 360 -174 360zM231 797l114 106c24 19 30 20 41 20h3
c17 0 32 -11 32 -23c0 -10 -11 -24 -22 -30l-130 -73h-38z" />
    <glyph glyph-name="Ocircumflex" unicode="&#xd4;" horiz-adv-x="653" 
d="M329 737c164 0 291 -164 291 -376c0 -214 -127 -376 -294 -376s-294 162 -294 375c0 178 98 377 297 377zM328 721c-168 0 -178 -252 -178 -358c0 -102 8 -362 176 -362c169 0 176 256 176 360c0 99 -7 360 -174 360zM354 907l106 -110h-44l-90 69l-90 -69h-44l106 110
h56z" />
    <glyph glyph-name="Otilde" unicode="&#xd5;" horiz-adv-x="653" 
d="M329 737c164 0 291 -164 291 -376c0 -214 -127 -376 -294 -376s-294 162 -294 375c0 178 98 377 297 377zM328 721c-168 0 -178 -252 -178 -358c0 -102 8 -362 176 -362c169 0 176 256 176 360c0 99 -7 360 -174 360zM271 892c48 0 92 -60 122 -60c18 0 35 31 40 72h35
c-6 -64 -44 -107 -94 -107c-51 0 -83 59 -118 59c-18 0 -32 -21 -38 -59h-34c11 58 45 95 87 95z" />
    <glyph glyph-name="Odieresis" unicode="&#xd6;" horiz-adv-x="653" 
d="M329 737c164 0 291 -164 291 -376c0 -214 -127 -376 -294 -376s-294 162 -294 375c0 178 98 377 297 377zM328 721c-168 0 -178 -252 -178 -358c0 -102 8 -362 176 -362c169 0 176 256 176 360c0 99 -7 360 -174 360zM243 898c24 0 45 -24 45 -50c0 -28 -21 -51 -46 -51
c-23 0 -44 24 -44 51c0 26 21 50 45 50zM409 898c24 0 45 -24 45 -50c0 -28 -21 -51 -46 -51c-24 0 -44 24 -44 51c0 26 20 50 45 50z" />
    <glyph glyph-name="multiply" unicode="&#xd7;" horiz-adv-x="481" 
d="M240 167l-165 -166l-50 34l164 167l-164 167l50 35l165 -167l165 167l51 -35l-166 -167l166 -167l-51 -34z" />
    <glyph glyph-name="Oslash" unicode="&#xd8;" horiz-adv-x="656" 
d="M33 361c0 177 114 370 296 370c62 0 112 -20 164 -64l54 95h51l-73 -110c61 -74 97 -180 97 -285c0 -141 -82 -375 -295 -375c-66 0 -119 24 -172 75l-83 -143h-51l102 158c-56 71 -90 177 -90 279zM173 142l281 482c-30 62 -72 92 -127 92c-117 0 -179 -125 -179 -362
c0 -92 9 -162 25 -212zM328 7c70 0 176 51 176 366c0 105 -8 167 -26 225l-282 -483c31 -71 75 -108 132 -108z" />
    <glyph glyph-name="Ugrave" unicode="&#xd9;" horiz-adv-x="677" 
d="M333 -15c-229 0 -239 166 -239 208v505h-89v24h283v-24h-92v-440c0 -102 5 -129 27 -169c28 -51 75 -81 133 -81c67 0 120 40 148 111c15 38 19 73 19 160v419h-96v24h247v-24h-98v-425c0 -112 -17 -288 -243 -288zM433 797h-39l-126 73c-10 6 -22 20 -22 30
c0 13 14 23 32 23h3c12 0 17 -1 41 -21z" />
    <glyph glyph-name="Uacute" unicode="&#xda;" horiz-adv-x="677" 
d="M333 -15c-229 0 -239 166 -239 208v505h-89v24h283v-24h-92v-440c0 -102 5 -129 27 -169c28 -51 75 -81 133 -81c67 0 120 40 148 111c15 38 19 73 19 160v419h-96v24h247v-24h-98v-425c0 -112 -17 -288 -243 -288zM244 797l114 106c24 19 31 20 41 20h3
c18 0 32 -11 32 -23c0 -10 -10 -24 -22 -30l-130 -73h-38z" />
    <glyph glyph-name="Ucircumflex" unicode="&#xdb;" horiz-adv-x="677" 
d="M333 -15c-229 0 -239 166 -239 208v505h-89v24h283v-24h-92v-440c0 -102 5 -129 27 -169c28 -51 75 -81 133 -81c67 0 120 40 148 111c15 38 19 73 19 160v419h-96v24h247v-24h-98v-425c0 -112 -17 -288 -243 -288zM367 907l106 -110h-44l-89 69l-90 -69h-44l105 110h56z
" />
    <glyph glyph-name="Udieresis" unicode="&#xdc;" horiz-adv-x="677" 
d="M333 -15c-229 0 -239 166 -239 208v505h-89v24h283v-24h-92v-440c0 -102 5 -129 27 -169c28 -51 75 -81 133 -81c67 0 120 40 148 111c15 38 19 73 19 160v419h-96v24h247v-24h-98v-425c0 -112 -17 -288 -243 -288zM256 898c24 0 46 -24 46 -50c0 -28 -22 -51 -46 -51
s-44 24 -44 51c0 26 20 50 44 50zM422 898c24 0 46 -24 46 -50c0 -28 -22 -51 -46 -51s-44 24 -44 51c0 26 20 50 44 50z" />
    <glyph glyph-name="Yacute" unicode="&#xdd;" horiz-adv-x="618" 
d="M213 797l116 140c22 25 31 31 44 31c17 0 32 -11 32 -23c0 -10 -11 -20 -22 -30l-132 -118h-38zM342 341l155 357h-125v24h247v-23h-10c-69 0 -96 -74 -114 -116l-126 -281v-278h97v-24h-296v24h98v265l-210 409h-59v24h276v-23h-52c-23 0 -30 -15 -30 -32
c0 -14 3 -30 8 -40z" />
    <glyph glyph-name="Thorn" unicode="&#xde;" horiz-adv-x="559" 
d="M258 567c234 0 285 -112 285 -187c0 -78 -44 -196 -293 -196h-45v-98c0 -57 8 -63 72 -63h20v-23h-285v23h20c64 0 73 6 73 64v550c0 55 -9 62 -73 62h-20v23h285v-23h-20c-64 0 -72 -7 -72 -62v-70h53zM432 382c0 161 -88 168 -168 168h-18c-38 0 -41 -5 -41 -70v-277
h36c145 0 191 43 191 179z" />
    <glyph glyph-name="germandbls" unicode="&#xdf;" horiz-adv-x="512" 
d="M306 72c0 -23 -13 -23 -13 -47c0 -22 8 -25 15 -25c30 0 63 72 63 187c0 202 -151 183 -151 193c0 13 124 24 124 172c0 104 -33 169 -84 169c-54 0 -100 -54 -100 -155v-566h-151v15h65v505c0 131 52 211 184 211h2c99 0 169 -75 169 -174c0 -72 -25 -140 -89 -181
c70 -26 127 -112 127 -189c0 -120 -74 -202 -157 -202c-64 0 -104 31 -104 78c0 29 21 48 50 48c27 0 50 -16 50 -39z" />
    <glyph glyph-name="agrave" unicode="&#xe0;" horiz-adv-x="485" 
d="M321 472h-39l-132 118c-10 8 -22 20 -22 30c0 13 14 23 32 23c14 0 22 -6 44 -31zM300 287c0 51 -9 115 -81 115c-41 0 -77 -22 -77 -49s19 -31 19 -51c0 -19 -22 -32 -49 -32c-32 0 -52 17 -52 43c0 58 74 99 173 99c152 0 152 -88 152 -131v-185c0 -56 10 -77 31 -77
c18 0 52 10 52 14c0 -19 -43 -45 -83 -45c-42 0 -65 26 -79 72c-38 -46 -79 -72 -140 -72c-78 0 -132 37 -132 92c0 65 70 123 266 162v45zM300 223c-72 -17 -172 -31 -172 -131c0 -49 29 -86 67 -86s67 25 88 63c14 26 17 40 17 100v54z" />
    <glyph glyph-name="aacute" unicode="&#xe1;" horiz-adv-x="485" 
d="M155 472l116 140c22 25 31 31 44 31c17 0 32 -11 32 -23c0 -10 -11 -20 -22 -30l-132 -118h-38zM300 287c0 51 -9 115 -81 115c-41 0 -77 -22 -77 -49s19 -31 19 -51c0 -19 -22 -32 -49 -32c-32 0 -52 17 -52 43c0 58 74 99 173 99c152 0 152 -88 152 -131v-185
c0 -56 10 -77 31 -77c18 0 52 10 52 14c0 -19 -43 -45 -83 -45c-42 0 -65 26 -79 72c-38 -46 -79 -72 -140 -72c-78 0 -132 37 -132 92c0 65 70 123 266 162v45zM300 223c-72 -17 -172 -31 -172 -131c0 -49 29 -86 67 -86s67 25 88 63c14 26 17 40 17 100v54z" />
    <glyph glyph-name="acircumflex" unicode="&#xe2;" horiz-adv-x="485" 
d="M263 638l107 -166h-35l-98 125l-100 -125h-34l104 166h56zM300 287c0 51 -9 115 -81 115c-41 0 -77 -22 -77 -49s19 -31 19 -51c0 -19 -22 -32 -49 -32c-32 0 -52 17 -52 43c0 58 74 99 173 99c152 0 152 -88 152 -131v-185c0 -56 10 -77 31 -77c18 0 52 10 52 14
c0 -19 -43 -45 -83 -45c-42 0 -65 26 -79 72c-38 -46 -79 -72 -140 -72c-78 0 -132 37 -132 92c0 65 70 123 266 162v45zM300 223c-72 -17 -172 -31 -172 -131c0 -49 29 -86 67 -86s67 25 88 63c14 26 17 40 17 100v54z" />
    <glyph glyph-name="atilde" unicode="&#xe3;" horiz-adv-x="485" 
d="M176 566c48 0 92 -60 122 -60c18 0 35 31 40 72h35c-6 -63 -44 -106 -94 -106c-51 0 -83 59 -118 59c-18 0 -32 -21 -38 -59h-34c11 57 45 94 87 94zM300 287c0 51 -9 115 -81 115c-41 0 -77 -22 -77 -49s19 -31 19 -51c0 -19 -22 -32 -49 -32c-32 0 -52 17 -52 43
c0 58 74 99 173 99c152 0 152 -88 152 -131v-185c0 -56 10 -77 31 -77c18 0 52 10 52 14c0 -19 -43 -45 -83 -45c-42 0 -65 26 -79 72c-38 -46 -79 -72 -140 -72c-78 0 -132 37 -132 92c0 65 70 123 266 162v45zM300 223c-72 -17 -172 -31 -172 -131c0 -49 29 -86 67 -86
s67 25 88 63c14 26 17 40 17 100v54z" />
    <glyph glyph-name="adieresis" unicode="&#xe4;" horiz-adv-x="485" 
d="M152 572c24 0 45 -24 45 -50c0 -28 -21 -50 -46 -50c-23 0 -44 23 -44 50c0 26 21 50 45 50zM318 572c24 0 45 -24 45 -50c0 -28 -21 -50 -46 -50c-24 0 -44 23 -44 50c0 26 20 50 45 50zM300 287c0 51 -9 115 -81 115c-41 0 -77 -22 -77 -49s19 -31 19 -51
c0 -19 -22 -32 -49 -32c-32 0 -52 17 -52 43c0 58 74 99 173 99c152 0 152 -88 152 -131v-185c0 -56 10 -77 31 -77c18 0 52 10 52 14c0 -19 -43 -45 -83 -45c-42 0 -65 26 -79 72c-38 -46 -79 -72 -140 -72c-78 0 -132 37 -132 92c0 65 70 123 266 162v45zM300 223
c-72 -17 -172 -31 -172 -131c0 -49 29 -86 67 -86s67 25 88 63c14 26 17 40 17 100v54z" />
    <glyph glyph-name="aring" unicode="&#xe5;" horiz-adv-x="485" 
d="M235 651c47 0 85 -36 85 -89c0 -56 -38 -90 -86 -90c-46 0 -84 35 -84 90c0 53 38 89 85 89zM236 646c-28 0 -50 -33 -50 -84c0 -53 22 -86 49 -86c28 0 48 32 48 86c0 51 -21 84 -47 84zM300 287c0 51 -9 115 -81 115c-41 0 -77 -22 -77 -49s19 -31 19 -51
c0 -19 -22 -32 -49 -32c-32 0 -52 17 -52 43c0 58 74 99 173 99c152 0 152 -88 152 -131v-185c0 -56 10 -77 31 -77c18 0 52 10 52 14c0 -19 -43 -45 -83 -45c-42 0 -65 26 -79 72c-38 -46 -79 -72 -140 -72c-78 0 -132 37 -132 92c0 65 70 123 266 162v45zM300 223
c-72 -17 -172 -31 -172 -131c0 -49 29 -86 67 -86s67 25 88 63c14 26 17 40 17 100v54z" />
    <glyph glyph-name="ae" unicode="&#xe6;" horiz-adv-x="688" 
d="M298 114c-9 27 -14 56 -14 87c0 6 1 12 1 18c-70 -16 -157 -34 -157 -127c0 -49 29 -86 67 -86c57 0 97 62 103 108zM381 242h154c19 1 34 33 34 53c0 83 -33 107 -88 107c-58 0 -100 -113 -100 -160zM379 194c0 -81 24 -188 121 -188c59 0 96 27 132 98l32 -8
c-36 -72 -95 -108 -179 -108c-83 1 -138 29 -170 84l-9 -12c-38 -46 -79 -72 -140 -72c-78 0 -132 37 -132 92c0 63 67 120 253 159c3 18 7 35 13 51c0 51 -10 112 -81 112c-41 0 -77 -22 -77 -49s19 -31 19 -51c0 -19 -22 -32 -49 -32c-32 0 -52 17 -52 43
c0 58 74 99 173 99c61 0 98 -20 119 -47c34 30 80 47 131 47c107 0 181 -65 181 -183v-2h-284c-1 -11 -1 -22 -1 -33z" />
    <glyph glyph-name="ccedilla" unicode="&#xe7;" horiz-adv-x="409" 
d="M268 306c0 29 22 25 22 54c0 24 -22 42 -46 42c-65 0 -106 -80 -106 -200c0 -116 41 -189 109 -189c45 0 76 26 102 93l38 -5c-38 -81 -82 -113 -160 -113h-7l-18 -43c41 0 96 -26 96 -72c0 -48 -35 -74 -96 -74c-27 0 -47 4 -68 15l6 7c20 -10 35 -15 52 -15
c27 0 44 25 44 64c0 33 -24 58 -58 58h-18l29 64c-88 17 -146 94 -146 201c0 127 82 219 195 219c79 0 138 -42 138 -94c0 -29 -23 -48 -54 -48s-54 15 -54 36z" />
    <glyph glyph-name="egrave" unicode="&#xe8;" horiz-adv-x="452" 
d="M330 472h-39l-132 118c-10 8 -22 20 -22 30c0 13 14 23 32 23c14 0 22 -6 44 -31zM138 194c0 -81 24 -188 121 -188c59 0 96 27 132 98l32 -8c-36 -72 -95 -108 -179 -108c-135 1 -201 97 -201 213c0 127 86 211 199 211c107 0 181 -65 181 -183v-2h-284
c-1 -11 -1 -22 -1 -33zM140 242h154c19 1 34 33 34 53c0 83 -33 107 -88 107c-58 0 -100 -113 -100 -160z" />
    <glyph glyph-name="eacute" unicode="&#xe9;" horiz-adv-x="452" 
d="M138 194c0 -81 24 -188 121 -188c59 0 96 27 132 98l32 -8c-36 -72 -95 -108 -179 -108c-135 1 -201 97 -201 213c0 127 86 211 199 211c107 0 181 -65 181 -183v-2h-284c-1 -11 -1 -22 -1 -33zM140 242h154c19 1 34 33 34 53c0 83 -33 107 -88 107
c-58 0 -100 -113 -100 -160zM190 472l116 140c22 25 31 31 44 31c17 0 32 -11 32 -23c0 -10 -11 -20 -22 -30l-132 -118h-38z" />
    <glyph glyph-name="ecircumflex" unicode="&#xea;" horiz-adv-x="452" 
d="M261 638l106 -166h-34l-99 125l-100 -125h-34l105 166h56zM138 194c0 -81 24 -188 121 -188c59 0 96 27 132 98l32 -8c-36 -72 -95 -108 -179 -108c-135 1 -201 97 -201 213c0 127 86 211 199 211c107 0 181 -65 181 -183v-2h-284c-1 -11 -1 -22 -1 -33zM140 242h154
c19 1 34 33 34 53c0 83 -33 107 -88 107c-58 0 -100 -113 -100 -160z" />
    <glyph glyph-name="edieresis" unicode="&#xeb;" horiz-adv-x="452" 
d="M160 572c24 0 45 -24 45 -50c0 -28 -21 -50 -46 -50c-23 0 -44 23 -44 50c0 26 21 50 45 50zM326 572c24 0 45 -24 45 -50c0 -28 -21 -50 -46 -50c-24 0 -44 23 -44 50c0 26 20 50 45 50zM138 194c0 -81 24 -188 121 -188c59 0 96 27 132 98l32 -8
c-36 -72 -95 -108 -179 -108c-135 1 -201 97 -201 213c0 127 86 211 199 211c107 0 181 -65 181 -183v-2h-284c-1 -11 -1 -22 -1 -33zM140 242h154c19 1 34 33 34 53c0 83 -33 107 -88 107c-58 0 -100 -113 -100 -160z" />
    <glyph glyph-name="igrave" unicode="&#xec;" horiz-adv-x="263" 
d="M234 472h-39l-132 118c-10 8 -22 20 -22 30c0 13 14 23 32 23c14 0 22 -6 44 -31zM184 400v-385h74v-15h-230v15h71v370h-82v15h167z" />
    <glyph glyph-name="iacute" unicode="&#xed;" horiz-adv-x="263" 
d="M42 472l116 140c22 25 31 31 44 31c17 0 32 -11 32 -23c0 -10 -11 -20 -22 -30l-132 -118h-38zM184 400v-385h74v-15h-230v15h71v370h-82v15h167z" />
    <glyph glyph-name="icircumflex" unicode="&#xee;" horiz-adv-x="263" 
d="M165 638l106 -166h-34l-99 125l-100 -125h-34l105 166h56zM184 400v-385h74v-15h-230v15h71v370h-82v15h167z" />
    <glyph glyph-name="idieresis" unicode="&#xef;" horiz-adv-x="263" 
d="M54 572c24 0 46 -24 46 -50c0 -28 -21 -50 -46 -50c-23 0 -44 23 -44 50c0 26 20 50 44 50zM220 572c24 0 46 -24 46 -50c0 -28 -21 -50 -46 -50c-24 0 -44 23 -44 50c0 26 19 50 44 50zM184 400v-385h74v-15h-230v15h71v370h-82v15h167z" />
    <glyph glyph-name="eth" unicode="&#xf0;" horiz-adv-x="452" 
d="M203 516c55 -43 205 -142 205 -331c0 -111 -81 -197 -184 -197s-185 86 -185 194s82 194 186 194c11 0 21 1 33 2c-15 44 -71 100 -93 118l-104 -54l-22 16l102 52c-25 18 -74 46 -93 53l25 18c43 -19 59 -29 95 -52l111 56l23 -15zM226 366c-61 0 -92 -62 -92 -185
c0 -119 32 -183 90 -183s90 64 90 184c0 119 -32 184 -88 184z" />
    <glyph glyph-name="ntilde" unicode="&#xf1;" horiz-adv-x="533" 
d="M220 566c48 0 92 -60 122 -60c18 0 35 31 40 72h35c-6 -63 -43 -106 -93 -106c-51 0 -83 59 -118 59c-18 0 -32 -21 -38 -59h-34c11 57 44 94 86 94zM178 400v-63c38 50 82 75 139 75c96 -1 141 -74 141 -168v-229h70v-15h-227v15h70v234c0 44 -21 137 -80 137
c-97 0 -113 -123 -113 -190v-181h73v-15h-228v15h70v370h-70v15h155z" />
    <glyph glyph-name="ograve" unicode="&#xf2;" horiz-adv-x="462" 
d="M329 472h-39l-132 118c-10 8 -22 20 -22 30c0 13 14 23 32 23c14 0 22 -6 44 -31zM235 412c104 0 189 -96 189 -213s-85 -211 -191 -211c-107 0 -191 94 -191 211c0 120 84 213 193 213zM235 402c-65 0 -98 -68 -98 -202c0 -131 34 -202 96 -202s97 71 97 202
s-35 202 -95 202z" />
    <glyph glyph-name="oacute" unicode="&#xf3;" horiz-adv-x="462" 
d="M137 472l116 140c22 25 31 31 44 31c17 0 32 -11 32 -23c0 -10 -11 -20 -22 -30l-132 -118h-38zM235 412c104 0 189 -96 189 -213s-85 -211 -191 -211c-107 0 -191 94 -191 211c0 120 84 213 193 213zM235 402c-65 0 -98 -68 -98 -202c0 -131 34 -202 96 -202
s97 71 97 202s-35 202 -95 202z" />
    <glyph glyph-name="ocircumflex" unicode="&#xf4;" horiz-adv-x="462" 
d="M260 638l107 -166h-35l-98 125l-100 -125h-34l104 166h56zM235 412c104 0 189 -96 189 -213s-85 -211 -191 -211c-107 0 -191 94 -191 211c0 120 84 213 193 213zM235 402c-65 0 -98 -68 -98 -202c0 -131 34 -202 96 -202s97 71 97 202s-35 202 -95 202z" />
    <glyph glyph-name="otilde" unicode="&#xf5;" horiz-adv-x="462" 
d="M178 566c48 0 92 -60 122 -60c18 0 35 31 40 72h35c-6 -63 -44 -106 -94 -106c-51 0 -83 59 -118 59c-18 0 -32 -21 -38 -59h-34c11 57 45 94 87 94zM235 412c104 0 189 -96 189 -213s-85 -211 -191 -211c-107 0 -191 94 -191 211c0 120 84 213 193 213zM235 402
c-65 0 -98 -68 -98 -202c0 -131 34 -202 96 -202s97 71 97 202s-35 202 -95 202z" />
    <glyph glyph-name="odieresis" unicode="&#xf6;" horiz-adv-x="462" 
d="M150 572c24 0 45 -24 45 -50c0 -28 -21 -50 -46 -50c-23 0 -44 23 -44 50c0 26 21 50 45 50zM316 572c24 0 45 -24 45 -50c0 -28 -21 -50 -46 -50c-24 0 -44 23 -44 50c0 26 20 50 45 50zM235 412c104 0 189 -96 189 -213s-85 -211 -191 -211c-107 0 -191 94 -191 211
c0 120 84 213 193 213zM235 402c-65 0 -98 -68 -98 -202c0 -131 34 -202 96 -202s97 71 97 202s-35 202 -95 202z" />
    <glyph glyph-name="divide" unicode="&#xf7;" horiz-adv-x="473" 
d="M21 178v49h431v-49h-431zM234 414c31 0 56 -29 56 -62c0 -35 -25 -63 -57 -63c-30 0 -55 28 -55 63c0 33 25 62 56 62zM235 111c31 0 56 -29 56 -62c0 -35 -25 -63 -57 -63c-30 0 -55 28 -55 63c0 33 25 62 56 62z" />
    <glyph glyph-name="oslash" unicode="&#xf8;" horiz-adv-x="462" 
d="M235 402c-65 0 -98 -68 -98 -202c0 -38 2 -71 8 -99l144 275c-15 17 -33 26 -54 26zM354 500h52l-65 -125c50 -38 83 -103 83 -176c0 -117 -85 -211 -191 -211c-30 0 -59 8 -84 21l-57 -109h-52l71 136c-42 39 -69 97 -69 163c0 120 84 213 193 213c23 0 45 -4 66 -13z
M315 325l-149 -283c16 -29 39 -44 67 -44c62 0 97 71 97 202c0 51 -5 93 -15 125z" />
    <glyph glyph-name="ugrave" unicode="&#xf9;" horiz-adv-x="531" 
d="M363 472h-39l-132 118c-10 8 -22 20 -22 30c0 13 14 23 32 23c14 0 22 -6 44 -31zM247 16c47 0 117 34 117 188v181h-86v15h170v-384h79v-15h-163v69c-39 -57 -79 -82 -137 -82c-105 0 -140 50 -140 132v265h-72v15h158v-267c0 -60 6 -117 74 -117z" />
    <glyph glyph-name="uacute" unicode="&#xfa;" horiz-adv-x="531" 
d="M175 472l116 140c22 25 31 31 44 31c17 0 32 -11 32 -23c0 -10 -11 -20 -22 -30l-132 -118h-38zM247 16c47 0 117 34 117 188v181h-86v15h170v-384h79v-15h-163v69c-39 -57 -79 -82 -137 -82c-105 0 -140 50 -140 132v265h-72v15h158v-267c0 -60 6 -117 74 -117z" />
    <glyph glyph-name="ucircumflex" unicode="&#xfb;" horiz-adv-x="531" 
d="M298 638l107 -166h-35l-98 125l-100 -125h-34l104 166h56zM247 16c47 0 117 34 117 188v181h-86v15h170v-384h79v-15h-163v69c-39 -57 -79 -82 -137 -82c-105 0 -140 50 -140 132v265h-72v15h158v-267c0 -60 6 -117 74 -117z" />
    <glyph glyph-name="udieresis" unicode="&#xfc;" horiz-adv-x="531" 
d="M188 572c24 0 45 -24 45 -50c0 -28 -21 -50 -46 -50c-23 0 -44 23 -44 50c0 26 21 50 45 50zM354 572c24 0 45 -24 45 -50c0 -28 -21 -50 -46 -50c-24 0 -44 23 -44 50c0 26 20 50 45 50zM247 16c47 0 117 34 117 188v181h-86v15h170v-384h79v-15h-163v69
c-39 -57 -79 -82 -137 -82c-105 0 -140 50 -140 132v265h-72v15h158v-267c0 -60 6 -117 74 -117z" />
    <glyph glyph-name="yacute" unicode="&#xfd;" horiz-adv-x="449" 
d="M163 472l116 140c22 25 31 31 44 31c17 0 32 -11 32 -23c0 -10 -11 -20 -22 -30l-132 -118h-38zM80 -132c0 -8 -6 -21 -6 -30c0 -14 4 -23 10 -23c26 0 61 51 93 121l33 73l-152 376h-52v15h206v-15h-19c-25 0 -36 -12 -36 -29c0 -6 2 -15 5 -22l89 -234l102 285h-78v15
h174v-10h-8c-31 0 -46 -19 -68 -76l-96 -248c-78 -202 -131 -266 -218 -266c-45 0 -79 23 -79 53c0 24 22 41 53 41c26 0 47 -11 47 -26z" />
    <glyph glyph-name="thorn" unicode="&#xfe;" horiz-adv-x="469" 
d="M144 730v-390c29 49 64 70 115 70c95 0 169 -105 169 -210c0 -110 -74 -212 -174 -212c-50 0 -83 20 -110 67v-240h75v-15h-225v15h66v899h-66v16h150zM244 391c-62 0 -99 -87 -99 -197c0 -102 38 -187 96 -187s91 84 91 198c0 104 -32 186 -88 186z" />
    <glyph glyph-name="ydieresis" unicode="&#xff;" horiz-adv-x="449" 
d="M164 572c24 0 45 -24 45 -50c0 -28 -21 -50 -46 -50c-23 0 -44 23 -44 50c0 26 21 50 45 50zM330 572c24 0 45 -24 45 -50c0 -28 -21 -50 -46 -50c-24 0 -44 23 -44 50c0 26 20 50 45 50zM80 -132c0 -8 -6 -21 -6 -30c0 -14 4 -23 10 -23c26 0 61 51 93 121l33 73
l-152 376h-52v15h206v-15h-19c-25 0 -36 -12 -36 -29c0 -6 2 -15 5 -22l89 -234l102 285h-78v15h174v-10h-8c-31 0 -46 -19 -68 -76l-96 -248c-78 -202 -131 -266 -218 -266c-45 0 -79 23 -79 53c0 24 22 41 53 41c26 0 47 -11 47 -26z" />
    <glyph glyph-name="Amacron" unicode="&#x100;" horiz-adv-x="621" 
d="M326 730l242 -706h58v-24h-268v24h99l-68 219h-216l-65 -219h116v-24h-229v24h55l237 706h39zM282 585l-95 -309h189zM460 797h-300v49h300v-49z" />
    <glyph glyph-name="amacron" unicode="&#x101;" horiz-adv-x="485" 
d="M387 472h-300v48h300v-48zM300 287c0 51 -9 115 -81 115c-41 0 -77 -22 -77 -49s19 -31 19 -51c0 -19 -22 -32 -49 -32c-32 0 -52 17 -52 43c0 58 74 99 173 99c152 0 152 -88 152 -131v-185c0 -56 10 -77 31 -77c18 0 52 10 52 14c0 -19 -43 -45 -83 -45
c-42 0 -65 26 -79 72c-38 -46 -79 -72 -140 -72c-78 0 -132 37 -132 92c0 65 70 123 266 162v45zM300 223c-72 -17 -172 -31 -172 -131c0 -49 29 -86 67 -86s67 25 88 63c14 26 17 40 17 100v54z" />
    <glyph glyph-name="Abreve" unicode="&#x102;" horiz-adv-x="621" 
d="M326 730l242 -706h58v-24h-268v24h99l-68 219h-216l-65 -219h116v-24h-229v24h55l237 706h39zM282 585l-95 -309h189zM383 900l57 24v-3c0 -88 -68 -124 -137 -124c-70 0 -122 50 -122 107v2h41c0 -39 30 -72 82 -72c49 0 77 15 79 66z" />
    <glyph glyph-name="abreve" unicode="&#x103;" horiz-adv-x="485" 
d="M316 600l52 24v-3c0 -87 -67 -149 -136 -149c-70 0 -122 38 -122 126v2h36c1 -60 34 -92 86 -92c49 0 82 41 84 92zM300 287c0 51 -9 115 -81 115c-41 0 -77 -22 -77 -49s19 -31 19 -51c0 -19 -22 -32 -49 -32c-32 0 -52 17 -52 43c0 58 74 99 173 99
c152 0 152 -88 152 -131v-185c0 -56 10 -77 31 -77c18 0 52 10 52 14c0 -19 -43 -45 -83 -45c-42 0 -65 26 -79 72c-38 -46 -79 -72 -140 -72c-78 0 -132 37 -132 92c0 65 70 123 266 162v45zM300 223c-72 -17 -172 -31 -172 -131c0 -49 29 -86 67 -86s67 25 88 63
c14 26 17 40 17 100v54z" />
    <glyph glyph-name="Aogonek" unicode="&#x104;" horiz-adv-x="621" 
d="M326 730l242 -706h58v-24h-76l2 -1c-17 -13 -33 -58 -33 -91c0 -35 16 -48 33 -48c18 0 35 9 58 36l9 -8c-35 -37 -52 -41 -85 -41c-34 0 -60 24 -60 55c0 27 16 70 39 98h-155v24h99l-68 219h-216l-65 -219h116v-24h-229v24h55l237 706h39zM282 585l-95 -309h189z" />
    <glyph glyph-name="aogonek" unicode="&#x105;" horiz-adv-x="485" 
d="M300 287c0 51 -9 115 -81 115c-41 0 -77 -22 -77 -49s19 -31 19 -51c0 -19 -22 -32 -49 -32c-32 0 -52 17 -52 43c0 58 74 99 173 99c152 0 152 -88 152 -131v-185c0 -56 10 -77 31 -77c18 0 52 10 52 14c0 -19 -43 -45 -83 -45c-5 0 -9 0 -13 1c-13 -19 -23 -54 -23 -81
c0 -35 15 -48 32 -48c18 0 36 9 59 36l8 -8c-35 -37 -51 -41 -84 -41c-34 0 -60 24 -60 55c0 32 16 71 45 95c-20 11 -34 32 -43 63c-38 -46 -79 -72 -140 -72c-78 0 -132 37 -132 92c0 65 70 123 266 162v45zM300 223c-72 -17 -172 -31 -172 -131c0 -49 29 -86 67 -86
s67 25 88 63c14 26 17 40 17 100v54z" />
    <glyph glyph-name="Cacute" unicode="&#x106;" horiz-adv-x="594" 
d="M540 730l12 -274h-41c-21 87 -64 265 -190 265c-164 0 -171 -285 -171 -371c0 -236 59 -349 181 -349c119 0 160 137 177 236h43l-11 -237h-38v55c-42 -46 -110 -70 -181 -70c-168 0 -289 154 -289 369c0 160 95 383 290 383c62 0 124 -11 182 -83v76h36zM197 797
l114 106c24 19 30 20 41 20h3c17 0 32 -11 32 -23c0 -10 -11 -24 -22 -30l-130 -73h-38z" />
    <glyph glyph-name="cacute" unicode="&#x107;" horiz-adv-x="409" 
d="M158 472l116 140c22 25 31 31 44 31c17 0 32 -11 32 -23c0 -10 -11 -20 -22 -30l-132 -118h-38zM268 306c0 29 22 25 22 54c0 24 -22 42 -46 42c-65 0 -106 -80 -106 -200c0 -116 41 -189 109 -189c45 0 76 26 102 93l38 -5c-38 -81 -82 -113 -160 -113
c-109 0 -184 83 -184 205c0 127 82 219 195 219c79 0 138 -42 138 -94c0 -29 -23 -48 -54 -48s-54 15 -54 36z" />
    <glyph glyph-name="Ccircumflex" unicode="&#x108;" horiz-adv-x="594" 
d="M540 730l12 -274h-41c-21 87 -64 265 -190 265c-164 0 -171 -285 -171 -371c0 -236 59 -349 181 -349c119 0 160 137 177 236h43l-11 -237h-38v55c-42 -46 -110 -70 -181 -70c-168 0 -289 154 -289 369c0 160 95 383 290 383c62 0 124 -11 182 -83v76h36zM320 907
l106 -110h-44l-90 69l-90 -69h-44l106 110h56z" />
    <glyph glyph-name="ccircumflex" unicode="&#x109;" horiz-adv-x="409" 
d="M266 638l107 -166h-35l-98 125l-100 -125h-34l104 166h56zM268 306c0 29 22 25 22 54c0 24 -22 42 -46 42c-65 0 -106 -80 -106 -200c0 -116 41 -189 109 -189c45 0 76 26 102 93l38 -5c-38 -81 -82 -113 -160 -113c-109 0 -184 83 -184 205c0 127 82 219 195 219
c79 0 138 -42 138 -94c0 -29 -23 -48 -54 -48s-54 15 -54 36z" />
    <glyph glyph-name="Cdotaccent" unicode="&#x10a;" horiz-adv-x="594" 
d="M292 894c25 0 47 -21 47 -49s-22 -48 -47 -48c-26 0 -48 20 -48 48s22 49 48 49zM540 730l12 -274h-41c-21 87 -64 265 -190 265c-164 0 -171 -285 -171 -371c0 -236 59 -349 181 -349c119 0 160 137 177 236h43l-11 -237h-38v55c-42 -46 -110 -70 -181 -70
c-168 0 -289 154 -289 369c0 160 95 383 290 383c62 0 124 -11 182 -83v76h36z" />
    <glyph glyph-name="cdotaccent" unicode="&#x10b;" horiz-adv-x="409" 
d="M216 569c25 0 47 -21 47 -49s-22 -48 -47 -48c-26 0 -48 20 -48 48s22 49 48 49zM268 306c0 29 22 25 22 54c0 24 -22 42 -46 42c-65 0 -106 -80 -106 -200c0 -116 41 -189 109 -189c45 0 76 26 102 93l38 -5c-38 -81 -82 -113 -160 -113c-109 0 -184 83 -184 205
c0 127 82 219 195 219c79 0 138 -42 138 -94c0 -29 -23 -48 -54 -48s-54 15 -54 36z" />
    <glyph glyph-name="Ccaron" unicode="&#x10c;" horiz-adv-x="594" 
d="M540 730l12 -274h-41c-21 87 -64 265 -190 265c-164 0 -171 -285 -171 -371c0 -236 59 -349 181 -349c119 0 160 137 177 236h43l-11 -237h-38v55c-42 -46 -110 -70 -181 -70c-168 0 -289 154 -289 369c0 160 95 383 290 383c62 0 124 -11 182 -83v76h36zM264 797
l-106 110h44l90 -68l90 68h44l-106 -110h-56z" />
    <glyph glyph-name="ccaron" unicode="&#x10d;" horiz-adv-x="409" 
d="M212 472l-104 166h34l98 -124l100 124h35l-107 -166h-56zM268 306c0 29 22 25 22 54c0 24 -22 42 -46 42c-65 0 -106 -80 -106 -200c0 -116 41 -189 109 -189c45 0 76 26 102 93l38 -5c-38 -81 -82 -113 -160 -113c-109 0 -184 83 -184 205c0 127 82 219 195 219
c79 0 138 -42 138 -94c0 -29 -23 -48 -54 -48s-54 15 -54 36z" />
    <glyph glyph-name="Dcaron" unicode="&#x10e;" horiz-adv-x="648" 
d="M614 365c0 -173 -63 -365 -314 -365h-287v24h91v674h-91v24h272c98 0 161 -17 207 -52c79 -60 122 -169 122 -305zM250 24h58c133 0 188 93 188 337c0 240 -59 337 -202 337h-44c-38 0 -45 -6 -45 -69v-537c0 -64 7 -68 45 -68zM285 797l-105 110h44l89 -68l90 68h44
l-106 -110h-56z" />
    <glyph glyph-name="dcaron" unicode="&#x10f;" horiz-adv-x="536" 
d="M474 502l-21 8c55 40 82 80 82 116c0 15 0 21 -2 21h-2c-2 -1 -11 -1 -14 -1c-35 0 -50 25 -50 46c0 22 20 44 52 44c41 0 58 -40 58 -82c0 -54 -28 -105 -103 -152zM342 0v64c-27 -53 -64 -76 -120 -76c-104 0 -179 96 -179 215c0 120 77 209 179 209
c50 0 89 -20 120 -63v366h-93v15h177v-715h73v-15h-157zM239 393c-40 0 -101 -32 -101 -202c0 -108 38 -182 100 -182s102 83 102 196c0 151 -60 188 -101 188z" />
    <glyph glyph-name="Dcroat" unicode="&#x110;" horiz-adv-x="653" 
d="M619 361c0 -168 -63 -361 -314 -361h-287v24h91v337h-91v26h91v311h-91v24h272c98 0 162 -17 207 -52c77 -59 122 -173 122 -309zM209 361v-269c0 -64 7 -68 46 -68h58c134 0 188 92 188 337c0 240 -59 337 -201 337h-45c-39 0 -46 -6 -46 -69v-242h153v-26h-153z" />
    <glyph glyph-name="dcroat" unicode="&#x111;" horiz-adv-x="502" 
d="M342 0v64c-27 -53 -64 -76 -120 -76c-104 0 -179 96 -179 215c0 120 77 209 179 209c50 0 89 -20 120 -63v180h-126v31h126v155h-93v15h177v-170h72v-31h-72v-514h73v-15h-157zM239 393c-40 0 -101 -32 -101 -202c0 -108 38 -182 100 -182s102 83 102 196
c0 151 -60 188 -101 188z" />
    <glyph glyph-name="Emacron" unicode="&#x112;" horiz-adv-x="589" 
d="M319 24c126 0 166 59 194 228h42l-17 -252h-525v24h91v674h-91v24h515l11 -240h-41c-28 202 -82 216 -198 216h-44c-43 0 -52 -7 -52 -63v-262h136v127h44v-285h-44v138h-136v-266c0 -47 16 -63 59 -63h56zM434 797h-300v49h300v-49z" />
    <glyph glyph-name="emacron" unicode="&#x113;" horiz-adv-x="452" 
d="M383 472h-300v48h300v-48zM138 194c0 -81 24 -188 121 -188c59 0 96 27 132 98l32 -8c-36 -72 -95 -108 -179 -108c-135 1 -201 97 -201 213c0 127 86 211 199 211c107 0 181 -65 181 -183v-2h-284c-1 -11 -1 -22 -1 -33zM140 242h154c19 1 34 33 34 53
c0 83 -33 107 -88 107c-58 0 -100 -113 -100 -160z" />
    <glyph glyph-name="Ebreve" unicode="&#x114;" horiz-adv-x="589" 
d="M319 24c126 0 166 59 194 228h42l-17 -252h-525v24h91v674h-91v24h515l11 -240h-41c-28 202 -82 216 -198 216h-44c-43 0 -52 -7 -52 -63v-262h136v127h44v-285h-44v138h-136v-266c0 -47 16 -63 59 -63h56zM356 900l58 24v-3c0 -88 -68 -124 -138 -124s-122 50 -122 107
v2h42c0 -39 30 -72 82 -72c48 0 76 15 78 66z" />
    <glyph glyph-name="ebreve" unicode="&#x115;" horiz-adv-x="452" 
d="M325 600l52 24v-3c0 -87 -68 -149 -137 -149c-70 0 -122 38 -122 126v2h36c1 -60 35 -92 87 -92c49 0 82 41 84 92zM138 194c0 -81 24 -188 121 -188c59 0 96 27 132 98l32 -8c-36 -72 -95 -108 -179 -108c-135 1 -201 97 -201 213c0 127 86 211 199 211
c107 0 181 -65 181 -183v-2h-284c-1 -11 -1 -22 -1 -33zM140 242h154c19 1 34 33 34 53c0 83 -33 107 -88 107c-58 0 -100 -113 -100 -160z" />
    <glyph glyph-name="Edotaccent" unicode="&#x116;" horiz-adv-x="589" 
d="M319 24c126 0 166 59 194 228h42l-17 -252h-525v24h91v674h-91v24h515l11 -240h-41c-28 202 -82 216 -198 216h-44c-43 0 -52 -7 -52 -63v-262h136v127h44v-285h-44v138h-136v-266c0 -47 16 -63 59 -63h56zM284 894c26 0 48 -21 48 -49s-22 -48 -48 -48s-48 20 -48 48
s22 49 48 49z" />
    <glyph glyph-name="edotaccent" unicode="&#x117;" horiz-adv-x="452" 
d="M244 569c25 0 47 -21 47 -49s-22 -48 -47 -48c-26 0 -48 20 -48 48s22 49 48 49zM138 194c0 -81 24 -188 121 -188c59 0 96 27 132 98l32 -8c-36 -72 -95 -108 -179 -108c-135 1 -201 97 -201 213c0 127 86 211 199 211c107 0 181 -65 181 -183v-2h-284
c-1 -11 -1 -22 -1 -33zM140 242h154c19 1 34 33 34 53c0 83 -33 107 -88 107c-58 0 -100 -113 -100 -160z" />
    <glyph glyph-name="Eogonek" unicode="&#x118;" horiz-adv-x="589" 
d="M319 24c126 0 166 59 194 228h42l-17 -252h-74c-17 -13 -32 -58 -32 -91c0 -35 15 -48 32 -48c18 0 36 9 59 36l8 -8c-35 -37 -51 -41 -84 -41c-34 0 -60 24 -60 55c0 33 17 73 48 97h-422v24h91v674h-91v24h515l11 -240h-41c-28 202 -82 216 -198 216h-44
c-43 0 -52 -7 -52 -63v-262h136v127h44v-285h-44v138h-136v-266c0 -47 16 -63 59 -63h56z" />
    <glyph glyph-name="eogonek" unicode="&#x119;" horiz-adv-x="452" 
d="M138 194c0 -81 24 -188 121 -188c59 0 96 27 132 98l32 -8c-36 -72 -95 -108 -179 -108h-2c-15 -17 -26 -56 -26 -86c0 -35 15 -48 32 -48c18 0 36 9 59 36l8 -8c-35 -37 -51 -41 -84 -41c-34 0 -60 24 -60 55c0 32 16 70 44 94c-115 14 -172 104 -172 211
c0 127 86 211 199 211c107 0 181 -65 181 -183v-2h-284c-1 -11 -1 -22 -1 -33zM140 242h154c19 1 34 33 34 53c0 83 -33 107 -88 107c-58 0 -100 -113 -100 -160z" />
    <glyph glyph-name="Ecaron" unicode="&#x11a;" horiz-adv-x="589" 
d="M319 24c126 0 166 59 194 228h42l-17 -252h-525v24h91v674h-91v24h515l11 -240h-41c-28 202 -82 216 -198 216h-44c-43 0 -52 -7 -52 -63v-262h136v127h44v-285h-44v138h-136v-266c0 -47 16 -63 59 -63h56zM256 797l-106 110h44l90 -68l90 68h44l-106 -110h-56z" />
    <glyph glyph-name="ecaron" unicode="&#x11b;" horiz-adv-x="452" 
d="M217 472l-105 166h34l99 -124l100 124h34l-106 -166h-56zM138 194c0 -81 24 -188 121 -188c59 0 96 27 132 98l32 -8c-36 -72 -95 -108 -179 -108c-135 1 -201 97 -201 213c0 127 86 211 199 211c107 0 181 -65 181 -183v-2h-284c-1 -11 -1 -22 -1 -33zM140 242h154
c19 1 34 33 34 53c0 83 -33 107 -88 107c-58 0 -100 -113 -100 -160z" />
    <glyph glyph-name="Gcircumflex" unicode="&#x11c;" horiz-adv-x="654" 
d="M330 4c57 0 143 31 143 214v76h-91v24h274v-24h-89v-309h-39l-31 98c-55 -68 -104 -95 -175 -95c-116 0 -289 93 -289 361c0 265 163 388 298 388c62 0 136 -35 186 -113v108h36l12 -267h-41c-34 170 -101 256 -196 256c-115 0 -178 -130 -178 -372
c0 -290 108 -345 180 -345zM372 907l106 -110h-44l-89 69l-90 -69h-44l105 110h56z" />
    <glyph glyph-name="gcircumflex" unicode="&#x11d;" horiz-adv-x="439" 
d="M252 639l107 -166h-35l-98 125l-100 -125h-34l104 166h56zM226 146c-26 0 -47 6 -52 6c-27 0 -78 -24 -78 -47c0 -34 66 -35 138 -35h12c59 0 168 -43 168 -132c0 -79 -62 -138 -202 -138c-119 0 -186 43 -186 101c0 16 12 38 30 60l71 -26c-12 -12 -24 -36 -24 -53
c0 -47 43 -74 116 -74c97 0 112 55 112 111c0 36 -34 86 -112 87h-13c-108 0 -160 24 -160 80v6c0 40 48 63 81 72c-44 20 -71 63 -71 113c0 76 71 135 177 135c44 0 72 -7 110 -30c31 15 40 30 40 42c0 17 -16 30 -16 41c0 31 17 40 37 40h1c20 0 35 -17 35 -48
c-12 -48 -46 -66 -71 -85c24 -28 31 -59 31 -92c0 -113 -138 -134 -174 -134zM231 403c-58 0 -91 -52 -91 -126c0 -72 33 -116 88 -116s88 44 88 118c0 73 -30 124 -85 124z" />
    <glyph glyph-name="Gbreve" unicode="&#x11e;" horiz-adv-x="654" 
d="M330 4c57 0 143 31 143 214v76h-91v24h274v-24h-89v-309h-39l-31 98c-55 -68 -104 -95 -175 -95c-116 0 -289 93 -289 361c0 265 163 388 298 388c62 0 136 -35 186 -113v108h36l12 -267h-41c-34 170 -101 256 -196 256c-115 0 -178 -130 -178 -372
c0 -290 108 -345 180 -345zM417 900l57 24v-3c0 -88 -68 -124 -137 -124c-70 0 -122 50 -122 107v2h41c0 -39 30 -72 82 -72c49 0 77 15 79 66z" />
    <glyph glyph-name="gbreve" unicode="&#x11f;" horiz-adv-x="439" 
d="M314 605l52 24v-3c0 -87 -68 -149 -136 -149c-70 0 -122 38 -122 126v2h36c0 -60 34 -92 86 -92c50 0 82 41 84 92zM226 146c-26 0 -47 6 -52 6c-27 0 -78 -24 -78 -47c0 -34 66 -35 138 -35h12c59 0 168 -43 168 -132c0 -79 -62 -138 -202 -138c-119 0 -186 43 -186 101
c0 16 12 38 30 60l71 -26c-12 -12 -24 -36 -24 -53c0 -47 43 -74 116 -74c97 0 112 55 112 111c0 36 -34 86 -112 87h-13c-108 0 -160 24 -160 80v6c0 40 48 63 81 72c-44 20 -71 63 -71 113c0 76 71 135 177 135c44 0 72 -7 110 -30c31 15 40 30 40 42c0 17 -16 30 -16 41
c0 31 17 40 37 40h1c20 0 35 -17 35 -48c-13 -50 -40 -69 -76 -89c28 -27 36 -56 36 -88c0 -113 -138 -134 -174 -134zM231 403c-58 0 -91 -52 -91 -126c0 -72 33 -116 88 -116s88 44 88 118c0 73 -30 124 -85 124z" />
    <glyph glyph-name="Gdotaccent" unicode="&#x120;" horiz-adv-x="654" 
d="M345 894c25 0 47 -21 47 -49s-22 -48 -47 -48c-26 0 -48 20 -48 48s22 49 48 49zM330 4c57 0 143 31 143 214v76h-91v24h274v-24h-89v-309h-39l-31 98c-55 -68 -104 -95 -175 -95c-116 0 -289 93 -289 361c0 265 163 388 298 388c62 0 136 -35 186 -113v108h36l12 -267
h-41c-34 170 -101 256 -196 256c-115 0 -178 -130 -178 -372c0 -290 108 -345 180 -345z" />
    <glyph glyph-name="gdotaccent" unicode="&#x121;" horiz-adv-x="439" 
d="M234 572c24 0 46 -21 46 -49s-22 -48 -46 -48c-26 0 -48 20 -48 48s22 49 48 49zM226 146c-26 0 -47 6 -52 6c-27 0 -78 -24 -78 -47c0 -34 66 -35 138 -35h12c59 0 168 -43 168 -132c0 -79 -62 -138 -202 -138c-119 0 -186 43 -186 101c0 16 12 38 30 60l71 -26
c-12 -12 -24 -36 -24 -53c0 -47 43 -74 116 -74c97 0 112 55 112 111c0 36 -34 86 -112 87h-13c-108 0 -160 24 -160 80v6c0 40 48 63 81 72c-44 20 -71 63 -71 113c0 76 71 135 177 135c44 0 72 -7 110 -30c31 15 40 30 40 42c0 17 -16 30 -16 41c0 31 17 40 37 40h1
c20 0 35 -17 35 -48c-13 -50 -40 -69 -76 -89c28 -27 36 -56 36 -88c0 -113 -138 -134 -174 -134zM231 403c-58 0 -91 -52 -91 -126c0 -72 33 -116 88 -116s88 44 88 118c0 73 -30 124 -85 124z" />
    <glyph glyph-name="Gcommaaccent" unicode="&#x122;" horiz-adv-x="654" 
d="M309 -267l-18 7c48 33 71 65 71 95c0 12 0 17 -2 17h-2c-2 -1 -9 -1 -12 -1c-30 0 -43 21 -43 38c0 18 17 36 45 36c36 0 50 -33 50 -67c0 -44 -24 -86 -89 -125zM330 4c57 0 143 31 143 214v76h-91v24h274v-24h-89v-309h-39l-31 98c-55 -68 -104 -95 -175 -95
c-116 0 -289 93 -289 361c0 265 163 388 298 388c62 0 136 -35 186 -113v108h36l12 -267h-41c-34 170 -101 256 -196 256c-115 0 -178 -130 -178 -372c0 -290 108 -345 180 -345z" />
    <glyph glyph-name="gcommaaccent" unicode="&#x123;" horiz-adv-x="439" 
d="M226 146c-26 0 -47 6 -52 6c-27 0 -78 -24 -78 -47c0 -34 66 -35 138 -35h12c59 0 168 -43 168 -132c0 -79 -62 -138 -202 -138c-119 0 -186 43 -186 101c0 16 12 38 30 60l71 -26c-12 -12 -24 -36 -24 -53c0 -47 43 -74 116 -74c97 0 112 55 112 111
c0 36 -34 86 -112 87h-13c-108 0 -160 24 -160 80v6c0 40 48 63 81 72c-44 20 -71 63 -71 113c0 76 71 135 177 135c44 0 72 -7 110 -30c31 15 40 30 40 42c0 17 -16 30 -16 41c0 31 17 40 37 40h1c20 0 34 -17 34 -48c-12 -54 -37 -76 -70 -95c24 -25 31 -53 31 -82
c0 -113 -138 -134 -174 -134zM231 403c-58 0 -91 -52 -91 -126c0 -72 33 -116 88 -116s88 44 88 118c0 73 -30 124 -85 124zM268 666l18 -7c-48 -33 -71 -65 -71 -95c0 -12 0 -17 2 -17h2c2 1 9 1 12 1c30 0 43 -21 43 -38c0 -18 -17 -36 -45 -36c-36 0 -50 33 -50 67
c0 44 24 86 89 125z" />
    <glyph glyph-name="Hcircumflex" unicode="&#x124;" horiz-adv-x="688" 
d="M483 358h-279v-334h92v-24h-283v24h90v674h-90v24h283v-24h-92v-307h279v307h-88v24h280v-24h-91v-674h91v-24h-283v24h91v334zM372 907l106 -110h-44l-90 69l-90 -69h-44l106 110h56z" />
    <glyph glyph-name="hcircumflex" unicode="&#x125;" horiz-adv-x="521" 
d="M-3 715v15h167v-400c39 57 82 82 139 82c117 0 141 -71 141 -164v-233h70v-15h-227v15h70v238c0 49 -8 135 -80 135h-1c-70 0 -112 -119 -112 -185v-188h73v-15h-228v15h70v700h-82zM283 915l106 -166h-34l-99 125l-100 -125h-34l105 166h56z" />
    <glyph glyph-name="Hbar" unicode="&#x126;" horiz-adv-x="688" 
d="M483 358h-279v-334h92v-24h-283v24h90v507h-89v31h89v136h-90v24h283v-24h-92v-136h279v136h-88v24h280v-24h-91v-136h91v-31h-91v-507h91v-24h-283v24h91v334zM483 531h-279v-140h279v140z" />
    <glyph glyph-name="hbar" unicode="&#x127;" horiz-adv-x="521" 
d="M-3 715v15h167v-170h144v-31h-144v-199c39 57 82 82 139 82c117 0 141 -71 141 -164v-233h70v-15h-227v15h70v238c0 49 -8 135 -80 135h-1c-70 0 -112 -119 -112 -185v-188h73v-15h-228v15h70v514h-71v31h71v155h-82z" />
    <glyph glyph-name="Itilde" unicode="&#x128;" horiz-adv-x="309" 
d="M205 698v-674h91v-24h-283v24h91v674h-91v24h283v-24h-91zM100 892c48 0 92 -60 122 -60c18 0 34 31 40 72h34c-6 -64 -44 -107 -94 -107s-82 59 -118 59c-18 0 -32 -21 -38 -59h-34c12 58 46 95 88 95z" />
    <glyph glyph-name="itilde" unicode="&#x129;" horiz-adv-x="263" 
d="M82 566c48 0 92 -60 122 -60c18 0 35 31 40 72h35c-6 -63 -43 -106 -93 -106c-51 0 -83 59 -118 59c-18 0 -32 -21 -38 -59h-34c11 57 44 94 86 94zM184 400v-385h74v-15h-230v15h71v370h-82v15h167z" />
    <glyph glyph-name="Imacron" unicode="&#x12a;" horiz-adv-x="309" 
d="M205 698v-674h91v-24h-283v24h91v674h-91v24h283v-24h-91zM304 797h-300v49h300v-49z" />
    <glyph glyph-name="imacron" unicode="&#x12b;" horiz-adv-x="263" 
d="M288 472h-300v48h300v-48zM184 400v-385h74v-15h-230v15h71v370h-82v15h167z" />
    <glyph glyph-name="Ibreve" unicode="&#x12c;" horiz-adv-x="309" 
d="M205 698v-674h91v-24h-283v24h91v674h-91v24h283v-24h-91zM227 900l57 24v-3c0 -88 -68 -124 -137 -124c-70 0 -122 50 -122 107v2h41c0 -39 30 -72 82 -72c49 0 77 15 79 66z" />
    <glyph glyph-name="ibreve" unicode="&#x12d;" horiz-adv-x="263" 
d="M215 600l52 24v-3c0 -87 -68 -149 -137 -149c-70 0 -122 38 -122 126v2h36c1 -60 35 -92 87 -92c49 0 82 41 84 92zM184 400v-385h74v-15h-230v15h71v370h-82v15h167z" />
    <glyph glyph-name="Iogonek" unicode="&#x12e;" horiz-adv-x="309" 
d="M205 698v-674h91v-24h-129l2 -1c-17 -13 -32 -58 -32 -91c0 -35 15 -48 32 -48c18 0 36 9 59 36l8 -8c-35 -37 -51 -41 -84 -41c-34 0 -60 24 -60 55c0 27 14 70 37 98h-116v24h91v674h-91v24h283v-24h-91z" />
    <glyph glyph-name="iogonek" unicode="&#x12f;" horiz-adv-x="263" 
d="M184 400v-385h74v-15h-112l2 -1c-17 -13 -32 -58 -32 -91c0 -35 15 -48 32 -48c18 0 36 9 59 36l8 -8c-35 -37 -51 -41 -84 -41c-34 0 -60 24 -60 55c0 28 17 71 42 98h-85v15h71v370h-82v15h167zM142 598c25 0 47 -21 47 -49s-22 -48 -47 -48c-26 0 -48 20 -48 48
s22 49 48 49z" />
    <glyph glyph-name="Idotaccent" unicode="&#x130;" horiz-adv-x="309" 
d="M155 894c25 0 47 -21 47 -49s-22 -48 -47 -48c-26 0 -48 20 -48 48s22 49 48 49zM205 698v-674h91v-24h-283v24h91v674h-91v24h283v-24h-91z" />
    <glyph glyph-name="dotlessi" unicode="&#x131;" horiz-adv-x="263" 
d="M184 400v-385h74v-15h-230v15h71v370h-82v15h167z" />
    <glyph glyph-name="IJ" unicode="&#x132;" horiz-adv-x="782" 
d="M687 262c0 -169 -30 -277 -193 -277c-138 0 -171 102 -171 160c0 68 37 118 87 118c40 0 68 -28 68 -66c0 -33 -25 -58 -57 -58c-10 0 -17 1 -31 5h-3c-4 0 -6 -15 -6 -33c0 -29 20 -110 98 -110c95 0 107 123 107 262v435h-90v24h282v-24h-91v-436zM205 698v-674h91v-24
h-283v24h91v674h-91v24h283v-24h-91z" />
    <glyph glyph-name="ij" unicode="&#x133;" horiz-adv-x="514" 
d="M459 24c0 -98 -3 -224 -153 -224c-57 0 -97 24 -97 59c0 21 22 37 51 37c24 0 46 -12 46 -27c0 -9 -10 -13 -10 -34c0 -14 7 -26 18 -26c49 0 61 78 61 173v403h-87v15h171v-376zM418 598c25 0 47 -21 47 -49s-22 -48 -47 -48c-26 0 -48 20 -48 48s22 49 48 49zM184 400
v-385h74v-15h-230v15h71v370h-82v15h167zM142 598c25 0 47 -21 47 -49s-22 -48 -47 -48c-26 0 -48 20 -48 48s22 49 48 49z" />
    <glyph glyph-name="Jcircumflex" unicode="&#x134;" horiz-adv-x="473" 
d="M378 262c0 -169 -30 -277 -193 -277c-138 0 -171 102 -171 160c0 68 37 118 87 118c40 0 68 -28 68 -66c0 -33 -25 -58 -57 -58c-10 0 -17 1 -31 5h-3c-4 0 -6 -15 -6 -33c0 -29 20 -110 98 -110c95 0 107 123 107 262v435h-90v24h282v-24h-91v-436zM350 912l106 -110
h-44l-89 69l-90 -69h-44l105 110h56z" />
    <glyph glyph-name="jcircumflex" unicode="&#x135;" horiz-adv-x="251" 
d="M196 24c0 -98 -3 -224 -153 -224c-57 0 -97 24 -97 59c0 21 22 37 51 37c24 0 46 -12 46 -27c0 -9 -10 -13 -10 -34c0 -14 7 -26 18 -26c49 0 61 78 61 173v403h-87v15h171v-376zM176 638l106 -166h-34l-98 125l-100 -125h-34l104 166h56z" />
    <glyph glyph-name="Kcommaaccent" unicode="&#x136;" horiz-adv-x="671" 
d="M308 -252l-18 7c48 33 71 65 71 95c0 12 0 17 -2 17h-2c-2 -1 -9 -1 -12 -1c-30 0 -43 21 -43 38c0 18 17 36 45 36c36 0 50 -33 50 -67c0 -44 -24 -86 -89 -125zM204 311l305 387h-136v24h266v-23c-50 0 -102 -32 -143 -85l-126 -164l205 -370c24 -49 35 -57 80 -57h19
v-23h-295v24h116l-194 360l-97 -131v-229h93v-24h-284v24h91v674h-91v24h284v-24h-93v-387z" />
    <glyph glyph-name="kcommaaccent" unicode="&#x137;" horiz-adv-x="489" 
d="M207 -252l-18 7c48 33 71 65 71 95c0 12 0 17 -2 17h-2c-2 -1 -9 -1 -12 -1c-30 0 -43 21 -43 38c0 18 17 36 45 36c36 0 50 -33 50 -67c0 -44 -24 -86 -89 -125zM159 191l182 194h-114v15h225v-15c-58 -6 -97 -29 -146 -81l-37 -47l120 -183c34 -50 51 -55 99 -59v-15
h-229v15h75l-125 196l-50 -56v-140h65v-15h-216v15h66v700h-77v15h162v-539z" />
    <glyph glyph-name="kgreenlandic" unicode="&#x138;" horiz-adv-x="489" 
d="M159 191l182 194h-114v15h225v-15c-58 -6 -97 -29 -146 -81l-37 -47l120 -183c34 -50 51 -55 99 -59v-15h-229v15h75l-125 196l-50 -56v-140h65v-15h-216v15h66v470h-77v15h162v-309z" />
    <glyph glyph-name="Lacute" unicode="&#x139;" horiz-adv-x="553" 
d="M299 24c114 0 171 48 195 235h42l-18 -259h-505v24h91v674h-91v24h283v-24h-90v-615c0 -40 1 -59 57 -59h36zM180 797l114 106c24 19 29 20 41 20h3c16 0 32 -11 32 -23c0 -10 -12 -24 -22 -30l-130 -73h-38z" />
    <glyph glyph-name="lacute" unicode="&#x13a;" horiz-adv-x="246" 
d="M24 790l116 140c22 25 31 31 44 31c17 0 32 -11 32 -23c0 -10 -11 -20 -22 -30l-132 -118h-38zM0 715v15h164v-715h75v-15h-230v15h71v700h-80z" />
    <glyph glyph-name="Lcommaaccent" unicode="&#x13b;" horiz-adv-x="553" 
d="M299 24c114 0 171 48 195 235h42l-18 -259h-505v24h91v674h-91v24h283v-24h-90v-615c0 -40 1 -59 57 -59h36zM239 -252l-18 7c48 33 71 65 71 95c0 12 0 17 -2 17h-2c-2 -1 -9 -1 -12 -1c-30 0 -43 21 -43 38c0 18 17 36 45 36c36 0 50 -33 50 -67
c0 -44 -24 -86 -89 -125z" />
    <glyph glyph-name="lcommaaccent" unicode="&#x13c;" horiz-adv-x="246" 
d="M84 -252l-18 7c48 33 71 65 71 95c0 12 0 17 -2 17h-2c-2 -1 -9 -1 -12 -1c-30 0 -43 21 -43 38c0 18 17 36 45 36c36 0 50 -33 50 -67c0 -44 -24 -86 -89 -125zM0 715v15h164v-715h75v-15h-230v15h71v700h-80z" />
    <glyph glyph-name="Lcaron" unicode="&#x13d;" horiz-adv-x="575" 
d="M515 501l-21 8c55 40 82 80 82 116c0 15 0 21 -2 21h-2c-2 -1 -11 -1 -14 -1c-35 0 -50 25 -50 46c0 22 20 44 52 44c41 0 58 -40 58 -82c0 -54 -28 -105 -103 -152zM299 24c114 0 171 48 195 235h42l-18 -259h-505v24h91v674h-91v24h283v-24h-90v-615
c0 -40 1 -59 57 -59h36z" />
    <glyph glyph-name="lcaron" unicode="&#x13e;" horiz-adv-x="300" 
d="M242 502l-21 8c55 40 82 80 82 116c0 15 0 21 -2 21h-2c-2 -1 -11 -1 -14 -1c-35 0 -50 25 -50 46c0 22 20 44 52 44c41 0 58 -40 58 -82c0 -54 -28 -105 -103 -152zM0 715v15h164v-715h75v-15h-230v15h71v700h-80z" />
    <glyph glyph-name="Ldot" unicode="&#x13f;" horiz-adv-x="553" 
d="M390 467c32 0 58 -28 58 -62c0 -35 -27 -63 -60 -63c-31 0 -58 28 -58 63c0 34 28 62 60 62zM299 24c114 0 171 48 195 235h42l-18 -259h-505v24h91v674h-91v24h283v-24h-90v-615c0 -40 1 -59 57 -59h36z" />
    <glyph glyph-name="ldot" unicode="&#x140;" horiz-adv-x="358" 
d="M294 471c32 0 58 -28 58 -62c0 -35 -26 -63 -59 -63c-31 0 -59 28 -59 63c0 34 28 62 60 62zM0 715v15h164v-715h75v-15h-230v15h71v700h-80z" />
    <glyph glyph-name="Lslash" unicode="&#x141;" horiz-adv-x="562" 
d="M309 24c90 0 167 19 194 235h42l-17 -259h-506v24h91v256l-91 -77v35l91 78v382h-91v24h283v-24h-91v-322l158 141v-38l-158 -140v-252c0 -42 0 -63 59 -63h36z" />
    <glyph glyph-name="lslash" unicode="&#x142;" horiz-adv-x="263" 
d="M174 341l66 45v-29l-66 -50v-292h69v-15h-219v15h67v243l-63 -44v28l63 51v422h-74v15h157v-389z" />
    <glyph glyph-name="Nacute" unicode="&#x143;" horiz-adv-x="678" 
d="M190 722l334 -553v529h-97v24h246v-24c-66 0 -98 -18 -98 -152v-546h-40l-375 611v-587h98v-24h-246v24h97v674h-98v24h179zM247 797l114 106c24 19 30 20 41 20h3c17 0 32 -11 32 -23c0 -10 -11 -24 -22 -30l-130 -73h-38z" />
    <glyph glyph-name="nacute" unicode="&#x144;" horiz-adv-x="533" 
d="M180 472l116 140c22 25 31 31 44 31c17 0 32 -11 32 -23c0 -10 -11 -20 -22 -30l-132 -118h-38zM178 400v-63c38 50 82 75 139 75c96 -1 141 -74 141 -168v-229h70v-15h-227v15h70v234c0 44 -21 137 -80 137c-97 0 -113 -123 -113 -190v-181h73v-15h-228v15h70v370h-70
v15h155z" />
    <glyph glyph-name="Ncommaaccent" unicode="&#x145;" horiz-adv-x="678" 
d="M306 -252l-18 7c48 33 71 65 71 95c0 12 1 17 -1 17h-2c-2 -1 -9 -1 -12 -1c-30 0 -44 21 -44 38c0 18 17 36 45 36c36 0 50 -33 50 -67c0 -44 -24 -86 -89 -125zM190 722l334 -553v529h-97v24h246v-24c-66 0 -98 -18 -98 -152v-546h-40l-375 611v-587h98v-24h-246v24h97
v674h-98v24h179z" />
    <glyph glyph-name="ncommaaccent" unicode="&#x146;" horiz-adv-x="533" 
d="M240 -252l-18 7c48 33 71 65 71 95c0 12 0 17 -2 17h-2c-2 -1 -9 -1 -12 -1c-30 0 -43 21 -43 38c0 18 17 36 45 36c36 0 50 -33 50 -67c0 -44 -24 -86 -89 -125zM178 400v-63c38 50 82 75 139 75c96 -1 141 -74 141 -168v-229h70v-15h-227v15h70v234
c0 44 -21 137 -80 137c-97 0 -113 -123 -113 -190v-181h73v-15h-228v15h70v370h-70v15h155z" />
    <glyph glyph-name="Ncaron" unicode="&#x147;" horiz-adv-x="678" 
d="M190 722l334 -553v529h-97v24h246v-24c-66 0 -98 -18 -98 -152v-546h-40l-375 611v-587h98v-24h-246v24h97v674h-98v24h179zM314 797l-106 110h44l90 -68l90 68h44l-106 -110h-56z" />
    <glyph glyph-name="ncaron" unicode="&#x148;" horiz-adv-x="533" 
d="M247 472l-105 166h34l99 -124l100 124h34l-106 -166h-56zM178 400v-63c38 50 82 75 139 75c96 -1 141 -74 141 -168v-229h70v-15h-227v15h70v234c0 44 -21 137 -80 137c-97 0 -113 -123 -113 -190v-181h73v-15h-228v15h70v370h-70v15h155z" />
    <glyph glyph-name="napostrophe" unicode="&#x149;" horiz-adv-x="533" 
d="M178 400v-63c38 50 82 75 139 75c96 -1 141 -74 141 -168v-229h70v-15h-227v15h70v234c0 44 -21 137 -80 137c-97 0 -113 -123 -113 -190v-181h73v-15h-228v15h70v370h-70v15h155zM18 516l-18 7c48 33 71 65 71 95c0 12 0 17 -2 17h-2c-2 -1 -9 -1 -12 -1
c-30 0 -43 21 -43 38c0 18 17 36 45 36c36 0 50 -33 50 -67c0 -44 -24 -86 -89 -125z" />
    <glyph glyph-name="Eng" unicode="&#x14a;" horiz-adv-x="701" 
d="M524 19l-364 592v-587h98v-24h-246v24h97v674h-98v24h179l334 -553v529h-97v24h246v-24c-66 0 -98 -18 -98 -152l1 -522c0 -100 -2 -224 -153 -224c-57 0 -97 24 -97 59c0 21 22 37 51 37c24 0 46 -12 46 -27c0 -9 -10 -13 -10 -34c0 -14 7 -26 18 -26c43 0 93 70 93 206
v4z" />
    <glyph glyph-name="eng" unicode="&#x14b;" horiz-adv-x="485" 
d="M304 -200c-57 0 -97 24 -97 59c0 21 22 37 51 37c24 0 46 -12 46 -27c0 -9 -10 -13 -10 -34c0 -14 7 -26 18 -26c48 0 60 72 60 173l-1 267c0 44 -21 137 -80 137c-97 0 -113 -123 -113 -190v-181h73v-15h-228v15h70v370h-70v15h155v-63c38 50 82 75 139 75
c96 -1 141 -74 141 -168v-222c-1 -91 -3 -222 -154 -222z" />
    <glyph glyph-name="Omacron" unicode="&#x14c;" horiz-adv-x="653" 
d="M329 737c164 0 291 -164 291 -376c0 -214 -127 -376 -294 -376s-294 162 -294 375c0 178 98 377 297 377zM328 721c-168 0 -178 -252 -178 -358c0 -102 8 -362 176 -362c169 0 176 256 176 360c0 99 -7 360 -174 360zM476 797h-300v49h300v-49z" />
    <glyph glyph-name="omacron" unicode="&#x14d;" horiz-adv-x="462" 
d="M383 472h-300v48h300v-48zM235 412c104 0 189 -96 189 -213s-85 -211 -191 -211c-107 0 -191 94 -191 211c0 120 84 213 193 213zM235 402c-65 0 -98 -68 -98 -202c0 -131 34 -202 96 -202s97 71 97 202s-35 202 -95 202z" />
    <glyph glyph-name="Obreve" unicode="&#x14e;" horiz-adv-x="653" 
d="M329 737c164 0 291 -164 291 -376c0 -214 -127 -376 -294 -376s-294 162 -294 375c0 178 98 377 297 377zM328 721c-168 0 -178 -252 -178 -358c0 -102 8 -362 176 -362c169 0 176 256 176 360c0 99 -7 360 -174 360zM398 900l58 24v-3c0 -88 -68 -124 -138 -124
s-122 50 -122 107v2h42c0 -39 30 -72 82 -72c48 0 76 15 78 66z" />
    <glyph glyph-name="obreve" unicode="&#x14f;" horiz-adv-x="462" 
d="M310 600l52 24v-3c0 -87 -67 -149 -136 -149c-70 0 -122 38 -122 126v2h36c1 -60 34 -92 86 -92c49 0 82 41 84 92zM235 412c104 0 189 -96 189 -213s-85 -211 -191 -211c-107 0 -191 94 -191 211c0 120 84 213 193 213zM235 402c-65 0 -98 -68 -98 -202
c0 -131 34 -202 96 -202s97 71 97 202s-35 202 -95 202z" />
    <glyph glyph-name="Ohungarumlaut" unicode="&#x150;" horiz-adv-x="653" 
d="M329 737c164 0 291 -164 291 -376c0 -214 -127 -376 -294 -376s-294 162 -294 375c0 178 98 377 297 377zM328 721c-168 0 -178 -252 -178 -358c0 -102 8 -362 176 -362c169 0 176 256 176 360c0 99 -7 360 -174 360zM209 797l46 72c26 38 35 49 56 49c14 0 26 -7 26 -14
c0 -13 -1 -25 -16 -37l-84 -68zM315 797l50 78c18 30 31 43 52 43c14 0 26 -7 26 -14c0 -13 -2 -25 -16 -37l-80 -66z" />
    <glyph glyph-name="ohungarumlaut" unicode="&#x151;" horiz-adv-x="462" 
d="M171 472l29 107c14 42 26 59 47 59c14 0 26 -7 26 -14c0 -13 -7 -22 -16 -37l-69 -113zM277 472l29 107c13 42 26 59 47 59c14 0 26 -7 26 -14c0 -13 -6 -21 -16 -37l-68 -113zM235 412c104 0 189 -96 189 -213s-85 -211 -191 -211c-107 0 -191 94 -191 211
c0 120 84 213 193 213zM235 402c-65 0 -98 -68 -98 -202c0 -131 34 -202 96 -202s97 71 97 202s-35 202 -95 202z" />
    <glyph glyph-name="OE" unicode="&#x152;" horiz-adv-x="887" 
d="M30 366c0 150 83 356 310 356h487l12 -241h-42c-22 160 -52 223 -198 223h-22c-44 0 -51 -9 -51 -69v-262h124v127h46v-285h-46v138h-124v-275c0 -31 2 -61 58 -61h32c124 0 165 51 194 233h42l-17 -250h-501c-244 0 -304 242 -304 366zM425 232v293
c0 68 -3 179 -114 179c-132 0 -165 -182 -165 -344c0 -229 56 -343 166 -343c113 0 113 121 113 215z" />
    <glyph glyph-name="oe" unicode="&#x153;" horiz-adv-x="738" 
d="M424 194c0 -81 24 -188 121 -188c59 0 96 27 132 98l32 -8c-36 -72 -95 -108 -179 -108c-71 1 -123 27 -156 69c-35 -42 -85 -69 -141 -69c-107 0 -191 94 -191 211c0 120 84 213 193 213c55 0 105 -27 140 -70c36 45 90 70 153 70c107 0 181 -65 181 -183v-2h-284
l-1 -28v-5zM426 242h154c19 1 34 33 34 53c0 83 -33 107 -88 107c-58 0 -100 -113 -100 -160zM330 192c0 90 -30 210 -95 210s-98 -68 -98 -202c0 -129 34 -202 94 -202h2c63 2 97 109 97 194z" />
    <glyph glyph-name="Racute" unicode="&#x154;" horiz-adv-x="612" 
d="M205 362v-338h91v-24h-283v24h90v674h-90v24h295c145 0 228 -63 228 -172c0 -104 -59 -165 -181 -186c67 -21 99 -51 118 -150l11 -86c14 -82 24 -92 41 -92c22 0 31 32 34 107h41c-3 -105 -36 -153 -107 -153c-70 0 -102 44 -113 151l-10 79c-12 62 -17 142 -119 142
h-46zM295 383c106 0 129 72 129 166c0 105 -37 149 -118 149h-45c-52 0 -56 -1 -56 -46v-269h90zM212 797l114 106c24 19 29 20 41 20h3c16 0 32 -11 32 -23c0 -10 -12 -24 -22 -30l-130 -73h-38z" />
    <glyph glyph-name="racute" unicode="&#x155;" horiz-adv-x="399" 
d="M139 472l116 140c22 25 31 31 44 31c17 0 32 -11 32 -23c0 -10 -11 -20 -22 -30l-132 -118h-38zM296 378c-82 -11 -118 -171 -118 -268v-95h86v-15h-240v15h70v370h-74v15h158v-121c28 77 75 121 129 121c48 0 78 -23 78 -55c0 -26 -22 -44 -55 -44c-28 0 -49 14 -49 33
s3 29 15 44z" />
    <glyph glyph-name="Rcommaaccent" unicode="&#x156;" horiz-adv-x="612" 
d="M271 -262l-18 7c48 33 71 65 71 95c0 12 0 17 -2 17h-2c-2 -1 -9 -1 -12 -1c-30 0 -43 21 -43 38c0 18 17 36 45 36c36 0 50 -33 50 -67c0 -44 -24 -86 -89 -125zM205 362v-338h91v-24h-283v24h90v674h-90v24h295c145 0 228 -63 228 -172c0 -104 -59 -165 -181 -186
c67 -21 99 -51 118 -150l11 -86c14 -82 24 -92 41 -92c22 0 31 32 34 107h41c-3 -105 -36 -153 -107 -153c-70 0 -102 44 -113 151l-10 79c-12 62 -17 142 -119 142h-46zM295 383c106 0 129 72 129 166c0 105 -37 149 -118 149h-45c-52 0 -56 -1 -56 -46v-269h90z" />
    <glyph glyph-name="rcommaaccent" unicode="&#x157;" horiz-adv-x="399" 
d="M167 -252l-18 7c48 33 71 65 71 95c0 12 0 17 -2 17h-2c-2 -1 -9 -1 -12 -1c-30 0 -43 21 -43 38c0 18 17 36 45 36c36 0 50 -33 50 -67c0 -44 -24 -86 -89 -125zM296 378c-82 -11 -118 -171 -118 -268v-95h86v-15h-240v15h70v370h-74v15h158v-121c28 77 75 121 129 121
c48 0 78 -23 78 -55c0 -26 -22 -44 -55 -44c-28 0 -49 14 -49 33s3 29 15 44z" />
    <glyph glyph-name="Rcaron" unicode="&#x158;" horiz-adv-x="612" 
d="M205 362v-338h91v-24h-283v24h90v674h-90v24h295c145 0 228 -63 228 -172c0 -104 -59 -165 -181 -186c67 -21 99 -51 118 -150l11 -86c14 -82 24 -92 41 -92c22 0 31 32 34 107h41c-3 -105 -36 -153 -107 -153c-70 0 -102 44 -113 151l-10 79c-12 62 -17 142 -119 142
h-46zM295 383c106 0 129 72 129 166c0 105 -37 149 -118 149h-45c-52 0 -56 -1 -56 -46v-269h90zM278 797l-105 110h44l89 -68l90 68h44l-106 -110h-56z" />
    <glyph glyph-name="rcaron" unicode="&#x159;" horiz-adv-x="399" 
d="M174 472l-105 166h34l99 -124l100 124h34l-106 -166h-56zM296 378c-82 -11 -118 -171 -118 -268v-95h86v-15h-240v15h70v370h-74v15h158v-121c28 77 75 121 129 121c48 0 78 -23 78 -55c0 -26 -22 -44 -55 -44c-28 0 -49 14 -49 33s3 29 15 44z" />
    <glyph glyph-name="Sacute" unicode="&#x15a;" horiz-adv-x="616" 
d="M339 0c110 0 137 101 137 163c0 133 -93 145 -123 154l-80 25c-125 37 -172 89 -172 193c0 121 76 202 188 202h4c96 0 154 -36 182 -117v102h36l10 -237h-41c-20 96 -76 235 -190 235c-70 0 -116 -57 -116 -140c0 -72 33 -122 108 -145l90 -28c62 -17 177 -43 177 -213
c0 -138 -93 -210 -218 -210c-73 0 -164 38 -204 110l1 -106h-37l-3 273h40c21 -130 84 -261 211 -261zM224 797l114 106c24 19 29 20 41 20h3c16 0 32 -11 32 -23c0 -10 -12 -24 -22 -30l-130 -73h-38z" />
    <glyph glyph-name="sacute" unicode="&#x15b;" horiz-adv-x="415" 
d="M118 472l116 140c22 25 31 31 44 31c17 0 32 -11 32 -23c0 -10 -11 -20 -22 -30l-132 -118h-38zM353 400v-119h-34v2c0 49 -60 118 -112 118c-48 0 -97 -32 -97 -77c0 -61 46 -72 94 -84l45 -10c74 -13 131 -36 131 -128c0 -76 -71 -114 -159 -114c-44 0 -103 14 -139 44
v-32h-33v143h39c20 -94 62 -145 135 -145c52 0 98 37 98 87c0 45 -23 67 -93 88l-47 10c-64 14 -127 34 -127 110c0 71 73 119 152 119c45 0 80 -16 113 -41v29h34z" />
    <glyph glyph-name="Scircumflex" unicode="&#x15c;" horiz-adv-x="616" 
d="M339 0c110 0 137 101 137 163c0 133 -93 145 -123 154l-80 25c-125 37 -172 89 -172 193c0 121 76 202 188 202h4c96 0 154 -36 182 -117v102h36l10 -237h-41c-20 96 -76 235 -190 235c-70 0 -116 -57 -116 -140c0 -72 33 -122 108 -145l90 -28c62 -17 177 -43 177 -213
c0 -138 -93 -210 -218 -210c-73 0 -164 38 -204 110l1 -106h-37l-3 273h40c21 -130 84 -261 211 -261zM346 907l106 -110h-44l-89 69l-90 -69h-44l105 110h56z" />
    <glyph glyph-name="scircumflex" unicode="&#x15d;" horiz-adv-x="415" 
d="M242 638l106 -166h-34l-99 125l-100 -125h-34l105 166h56zM353 400v-119h-34v2c0 49 -60 118 -112 118c-48 0 -97 -32 -97 -77c0 -61 46 -72 94 -84l45 -10c74 -13 131 -36 131 -128c0 -76 -71 -114 -159 -114c-44 0 -103 14 -139 44v-32h-33v143h39
c20 -94 62 -145 135 -145c52 0 98 37 98 87c0 45 -23 67 -93 88l-47 10c-64 14 -127 34 -127 110c0 71 73 119 152 119c45 0 80 -16 113 -41v29h34z" />
    <glyph glyph-name="Scedilla" unicode="&#x15e;" horiz-adv-x="534" 
d="M262 5h11c142 0 155 97 155 158c0 133 -93 145 -123 154l-80 25c-125 37 -172 89 -172 193c0 121 76 202 188 202h4c96 0 154 -36 182 -117v102h36l10 -237h-41c-20 96 -76 235 -190 235c-70 0 -116 -57 -116 -140c0 -72 33 -122 108 -145l90 -28
c62 -17 177 -43 177 -213c0 -137 -91 -209 -215 -210l-16 -38c41 0 95 -26 95 -72c0 -48 -35 -74 -96 -74c-27 0 -46 4 -67 15l5 7c20 -10 35 -15 52 -15c27 0 44 25 44 64c0 33 -24 58 -58 58h-17l25 57c-66 9 -139 46 -174 108l1 -106h-37l-3 273h40
c19 -119 74 -239 181 -258z" />
    <glyph glyph-name="scedilla" unicode="&#x15f;" horiz-adv-x="415" 
d="M353 400v-119h-34v2c0 49 -60 118 -112 118c-48 0 -97 -32 -97 -77c0 -61 46 -72 94 -84l45 -10c74 -13 131 -36 131 -128c0 -76 -71 -114 -159 -114h-2l-20 -47c41 0 95 -26 95 -72c0 -48 -35 -74 -96 -74c-27 0 -47 4 -68 15l6 7c20 -10 35 -15 52 -15
c27 0 44 25 44 64c0 33 -24 58 -58 58h-17l29 67c-37 5 -77 18 -104 41v-32h-33v143h39c18 -84 53 -134 113 -143h23l-1 -2c52 0 98 37 98 87c0 45 -23 67 -93 88l-47 10c-64 14 -127 34 -127 110c0 71 73 119 152 119c45 0 80 -16 113 -41v29h34z" />
    <glyph glyph-name="Scaron" unicode="&#x160;" horiz-adv-x="616" 
d="M339 0c110 0 137 101 137 163c0 133 -93 145 -123 154l-80 25c-125 37 -172 89 -172 193c0 121 76 202 188 202h4c96 0 154 -36 182 -117v102h36l10 -237h-41c-20 96 -76 235 -190 235c-70 0 -116 -57 -116 -140c0 -72 33 -122 108 -145l90 -28c62 -17 177 -43 177 -213
c0 -138 -93 -210 -218 -210c-73 0 -164 38 -204 110l1 -106h-37l-3 273h40c21 -130 84 -261 211 -261zM290 797l-105 110h44l89 -68l90 68h44l-106 -110h-56z" />
    <glyph glyph-name="scaron" unicode="&#x161;" horiz-adv-x="415" 
d="M186 472l-105 166h34l99 -124l100 124h34l-106 -166h-56zM353 400v-119h-34v2c0 49 -60 118 -112 118c-48 0 -97 -32 -97 -77c0 -61 46 -72 94 -84l45 -10c74 -13 131 -36 131 -128c0 -76 -71 -114 -159 -114c-44 0 -103 14 -139 44v-32h-33v143h39
c20 -94 62 -145 135 -145c52 0 98 37 98 87c0 45 -23 67 -93 88l-47 10c-64 14 -127 34 -127 110c0 71 73 119 152 119c45 0 80 -16 113 -41v29h34z" />
    <glyph glyph-name="Tcommaaccent" unicode="&#x162;" horiz-adv-x="586" 
d="M206 703c-56 0 -116 -44 -141 -244h-41l12 263h512l14 -263h-42c-18 147 -56 244 -140 244c-25 0 -36 -17 -36 -54v-625h96v-24h-138l-22 -52c41 0 96 -26 96 -72c0 -48 -35 -74 -96 -74c-27 0 -47 4 -68 15l6 7c20 -10 35 -15 52 -15c27 0 44 25 44 64
c0 33 -24 58 -58 58h-18l31 69h-124v24h97v625c0 37 -10 54 -36 54z" />
    <glyph glyph-name="tcommaaccent" unicode="&#x163;" horiz-adv-x="355" 
d="M335 138c0 -64 -27 -150 -134 -150c-7 0 -14 0 -20 1l-19 -44c41 0 96 -26 96 -72c0 -48 -35 -74 -96 -74c-27 0 -47 4 -68 15l6 7c20 -10 35 -15 52 -15c27 0 44 25 44 64c0 33 -24 58 -58 58h-18l30 66c-61 18 -63 73 -63 129v260h-72v17c70 5 109 81 118 175h40v-175
h122v-17h-122v-263c0 -47 5 -108 50 -108c42 0 65 42 68 126h44z" />
    <glyph glyph-name="Tcaron" unicode="&#x164;" horiz-adv-x="586" 
d="M206 703c-56 0 -116 -44 -141 -244h-41l12 263h512l14 -263h-42c-18 147 -56 244 -140 244c-25 0 -36 -17 -36 -54v-625h96v-24h-295v24h97v625c0 37 -10 54 -36 54zM264 797l-104 110h44l88 -68l90 68h44l-106 -110h-56z" />
    <glyph glyph-name="tcaron" unicode="&#x165;" horiz-adv-x="355" 
d="M296 503l-21 8c55 40 82 80 82 116c0 15 0 21 -2 21h-2c-2 -1 -11 -1 -14 -1c-35 0 -50 25 -50 46c0 22 20 44 52 44c41 0 58 -40 58 -82c0 -54 -28 -105 -103 -152zM335 138c0 -64 -27 -150 -134 -150c-111 0 -114 66 -114 135v260h-72v17c70 5 109 81 118 175h40v-175
h122v-17h-122v-263c0 -47 5 -108 50 -108c42 0 65 42 68 126h44z" />
    <glyph glyph-name="Tbar" unicode="&#x166;" horiz-adv-x="586" 
d="M206 703c-56 0 -116 -44 -141 -244h-41l12 263h512l14 -263h-42c-18 147 -56 244 -140 244c-25 0 -36 -17 -36 -54v-250h96v-31h-96v-344h96v-24h-295v24h97v344h-102v31h102v250c0 37 -10 54 -36 54z" />
    <glyph glyph-name="tbar" unicode="&#x167;" horiz-adv-x="355" 
d="M335 138c0 -64 -27 -150 -134 -150c-111 0 -114 66 -114 135v103h-71v31h71v126h-72v17c70 5 109 81 118 175h40v-175h122v-17h-122v-126h125v-31h-125v-106c0 -47 5 -108 50 -108c42 0 65 42 68 126h44z" />
    <glyph glyph-name="Utilde" unicode="&#x168;" horiz-adv-x="677" 
d="M333 -15c-229 0 -239 166 -239 208v505h-89v24h283v-24h-92v-440c0 -102 5 -129 27 -169c28 -51 75 -81 133 -81c67 0 120 40 148 111c15 38 19 73 19 160v419h-96v24h247v-24h-98v-425c0 -112 -17 -288 -243 -288zM284 892c48 0 92 -60 122 -60c18 0 36 31 40 72h36
c-6 -64 -44 -107 -94 -107c-52 0 -84 59 -118 59c-18 0 -32 -21 -38 -59h-34c10 58 44 95 86 95z" />
    <glyph glyph-name="utilde" unicode="&#x169;" horiz-adv-x="531" 
d="M216 566c48 0 92 -60 122 -60c18 0 35 31 40 72h35c-6 -63 -44 -106 -94 -106c-51 0 -83 59 -118 59c-18 0 -32 -21 -38 -59h-34c11 57 45 94 87 94zM247 16c47 0 117 34 117 188v181h-86v15h170v-384h79v-16h-163v70c-39 -57 -79 -82 -137 -82c-105 0 -140 50 -140 132
v265h-72v15h158v-267c0 -60 6 -117 74 -117z" />
    <glyph glyph-name="Umacron" unicode="&#x16a;" horiz-adv-x="677" 
d="M333 -15c-229 0 -239 166 -239 208v505h-89v24h283v-24h-92v-440c0 -102 5 -129 27 -169c28 -51 75 -81 133 -81c67 0 120 40 148 111c15 38 19 73 19 160v419h-96v24h247v-24h-98v-425c0 -112 -17 -288 -243 -288zM490 797h-300v49h300v-49z" />
    <glyph glyph-name="umacron" unicode="&#x16b;" horiz-adv-x="531" 
d="M421 472h-300v48h300v-48zM247 16c47 0 117 34 117 188v181h-86v15h170v-384h79v-15h-163v69c-39 -57 -79 -82 -137 -82c-105 0 -140 50 -140 132v265h-72v15h158v-267c0 -60 6 -117 74 -117z" />
    <glyph glyph-name="Ubreve" unicode="&#x16c;" horiz-adv-x="677" 
d="M333 -15c-229 0 -239 166 -239 208v505h-89v24h283v-24h-92v-440c0 -102 5 -129 27 -169c28 -51 75 -81 133 -81c67 0 120 40 148 111c15 38 19 73 19 160v419h-96v24h247v-24h-98v-425c0 -112 -17 -288 -243 -288zM412 900l57 24v-3c0 -88 -68 -124 -137 -124
c-70 0 -122 50 -122 107v2h41c0 -39 30 -72 82 -72c49 0 77 15 79 66z" />
    <glyph glyph-name="ubreve" unicode="&#x16d;" horiz-adv-x="531" 
d="M348 600l52 24v-3c0 -87 -67 -149 -136 -149c-70 0 -122 38 -122 126v2h36c1 -60 34 -92 86 -92c49 0 82 41 84 92zM247 16c47 0 117 34 117 188v181h-86v15h170v-384h79v-16h-163v70c-39 -57 -79 -82 -137 -82c-105 0 -140 50 -140 132v265h-72v15h158v-267
c0 -60 6 -117 74 -117z" />
    <glyph glyph-name="Uring" unicode="&#x16e;" horiz-adv-x="677" 
d="M333 -15c-229 0 -239 166 -239 208v505h-89v24h283v-24h-92v-440c0 -102 5 -129 27 -169c28 -51 75 -81 133 -81c67 0 120 40 148 111c15 38 19 73 19 160v419h-96v24h247v-24h-98v-425c0 -112 -17 -288 -243 -288zM340 947c46 0 84 -21 84 -74c0 -56 -38 -76 -86 -76
c-46 0 -84 21 -84 76c0 53 38 74 86 74zM340 941c-28 0 -50 -18 -50 -69c0 -53 22 -70 50 -70s48 16 48 70c0 51 -22 69 -48 69z" />
    <glyph glyph-name="uring" unicode="&#x16f;" horiz-adv-x="531" 
d="M271 651c47 0 85 -36 85 -89c0 -56 -38 -90 -86 -90c-46 0 -84 35 -84 90c0 53 38 89 85 89zM272 646c-28 0 -50 -33 -50 -84c0 -53 22 -86 49 -86c28 0 48 32 48 86c0 51 -21 84 -47 84zM247 16c47 0 117 34 117 188v181h-86v15h170v-384h79v-16h-163v70
c-39 -57 -79 -82 -137 -82c-105 0 -140 50 -140 132v265h-72v15h158v-267c0 -60 6 -117 74 -117z" />
    <glyph glyph-name="Uhungarumlaut" unicode="&#x170;" horiz-adv-x="677" 
d="M333 -15c-229 0 -239 166 -239 208v505h-89v24h283v-24h-92v-440c0 -102 5 -129 27 -169c28 -51 75 -81 133 -81c67 0 120 40 148 111c15 38 19 73 19 160v419h-96v24h247v-24h-98v-425c0 -112 -17 -288 -243 -288zM222 797l46 72c26 38 36 49 56 49c14 0 26 -7 26 -14
c0 -13 0 -25 -16 -37l-84 -68zM328 797l50 78c18 30 32 43 52 43c14 0 26 -7 26 -14c0 -13 -2 -25 -16 -37l-80 -66z" />
    <glyph glyph-name="uhungarumlaut" unicode="&#x171;" horiz-adv-x="531" 
d="M167 472l29 107c14 42 26 59 47 59c14 0 26 -7 26 -14c0 -13 -7 -22 -16 -37l-69 -113zM273 472l29 107c13 42 26 59 47 59c14 0 26 -7 26 -14c0 -13 -6 -21 -16 -37l-68 -113zM247 16c47 0 117 34 117 188v181h-86v15h170v-384h79v-15h-163v69c-39 -57 -79 -82 -137 -82
c-105 0 -140 50 -140 132v265h-72v15h158v-267c0 -60 6 -117 74 -117z" />
    <glyph glyph-name="Uogonek" unicode="&#x172;" horiz-adv-x="677" 
d="M310 -14c-206 11 -216 166 -216 207v505h-89v24h283v-24h-92v-440c0 -102 5 -129 27 -169c28 -51 75 -81 133 -81c67 0 120 40 148 111c15 38 19 73 19 160v419h-96v24h247v-24h-98v-425c0 -111 -16 -283 -234 -288c-11 -20 -20 -51 -20 -76c0 -35 15 -48 32 -48
c18 0 36 9 59 36l8 -8c-35 -37 -51 -41 -84 -41c-34 0 -60 24 -60 55c0 27 12 59 33 83z" />
    <glyph glyph-name="uogonek" unicode="&#x173;" horiz-adv-x="531" 
d="M247 16c47 0 117 34 117 188v181h-86v15h170v-384h79v-15h-135l4 -2c-17 -13 -32 -58 -32 -91c0 -35 15 -48 32 -48c18 0 36 9 59 36l8 -8c-35 -37 -51 -41 -84 -41c-34 0 -60 24 -60 55c0 30 18 73 45 99v69c-39 -57 -79 -82 -137 -82c-105 0 -140 50 -140 132v265h-72
v15h158v-267c0 -60 6 -117 74 -117z" />
    <glyph glyph-name="Wcircumflex" unicode="&#x174;" horiz-adv-x="831" 
d="M295 159l95 413l-34 126h-61v24h251v-24h-34c-30 0 -39 -16 -39 -38c0 -11 2 -24 5 -37l114 -464l130 539h-105v24h213v-24h-6c-54 0 -78 -74 -88 -116l-146 -597h-37l-136 517l-124 -517h-41l-198 713h-53v24h245v-24h-42c-24 0 -32 -18 -32 -38c0 -9 2 -18 4 -27z
M443 907l106 -110h-44l-89 69l-90 -69h-44l105 110h56z" />
    <glyph glyph-name="wcircumflex" unicode="&#x175;" horiz-adv-x="649" 
d="M356 638l105 -166h-33l-100 125l-100 -125h-34l106 166h56zM463 91l103 294h-84v15h166v-11h-9c-28 0 -40 -18 -60 -74l-119 -327h-27l-104 288l-100 -288h-31l-147 397h-43v15h190v-15h-15c-26 0 -34 -8 -34 -23c0 -8 2 -17 5 -29l79 -238l93 290h-87v15h194v-15h-22
c-22 0 -32 -14 -32 -31c0 -6 1 -15 4 -21z" />
    <glyph glyph-name="Ycircumflex" unicode="&#x176;" horiz-adv-x="618" 
d="M342 341l155 357h-125v24h247v-23h-10c-69 0 -96 -74 -114 -116l-126 -281v-278h97v-24h-296v24h98v265l-210 409h-59v24h276v-23h-52c-23 0 -30 -15 -30 -32c0 -14 3 -30 8 -40zM336 907l106 -110h-44l-88 69l-90 -69h-44l104 110h56z" />
    <glyph glyph-name="ycircumflex" unicode="&#x177;" horiz-adv-x="449" 
d="M273 638l106 -166h-34l-99 125l-100 -125h-34l105 166h56zM80 -132c0 -8 -6 -21 -6 -30c0 -14 4 -23 10 -23c26 0 61 51 93 121l33 73l-152 376h-52v15h206v-15h-19c-25 0 -36 -12 -36 -29c0 -6 2 -15 5 -22l89 -234l102 285h-78v15h174v-10h-8c-31 0 -46 -19 -68 -76
l-96 -248c-78 -202 -131 -266 -218 -266c-45 0 -79 23 -79 53c0 24 22 41 53 41c26 0 47 -11 47 -26z" />
    <glyph glyph-name="Ydieresis" unicode="&#x178;" horiz-adv-x="618" 
d="M342 341l155 357h-125v24h247v-23h-10c-69 0 -96 -74 -114 -116l-126 -281v-278h97v-24h-296v24h98v265l-210 409h-59v24h276v-23h-52c-23 0 -30 -15 -30 -32c0 -14 3 -30 8 -40zM226 898c24 0 45 -24 45 -50c0 -28 -21 -51 -46 -51c-23 0 -44 24 -44 51
c0 26 21 50 45 50zM392 898c24 0 45 -24 45 -50c0 -28 -21 -51 -46 -51c-24 0 -44 24 -44 51c0 26 20 50 45 50z" />
    <glyph glyph-name="Zacute" unicode="&#x179;" horiz-adv-x="520" 
d="M273 24c121 0 150 89 169 240h45l-15 -264h-456v24l345 674h-106c-112 0 -143 -40 -170 -213h-44l18 237h423v-24l-346 -674h137zM156 797l114 106c24 19 31 20 41 20h3c18 0 32 -11 32 -23c0 -10 -10 -24 -22 -30l-130 -73h-38z" />
    <glyph glyph-name="zacute" unicode="&#x17a;" horiz-adv-x="405" 
d="M102 472l116 140c22 25 31 31 44 31c17 0 32 -11 32 -23c0 -10 -11 -20 -22 -30l-132 -118h-38zM361 400v-15l-234 -370h88c74 0 105 35 114 125h38l-6 -140h-332v15l234 370h-75c-67 0 -96 -35 -104 -117h-39l8 132h308z" />
    <glyph glyph-name="Zdotaccent" unicode="&#x17b;" horiz-adv-x="520" 
d="M273 24c121 0 150 89 169 240h45l-15 -264h-456v24l345 674h-106c-112 0 -143 -40 -170 -213h-44l18 237h423v-24l-346 -674h137zM252 894c25 0 47 -21 47 -49s-22 -48 -47 -48c-26 0 -48 20 -48 48s22 49 48 49z" />
    <glyph glyph-name="zdotaccent" unicode="&#x17c;" horiz-adv-x="405" 
d="M198 569c25 0 47 -21 47 -49s-22 -48 -47 -48c-26 0 -48 20 -48 48s22 49 48 49zM361 400v-15l-234 -370h88c74 0 105 35 114 125h38l-6 -140h-332v15l234 370h-75c-67 0 -96 -35 -104 -117h-39l8 132h308z" />
    <glyph glyph-name="Zcaron" unicode="&#x17d;" horiz-adv-x="520" 
d="M273 24c121 0 150 89 169 240h45l-15 -264h-456v24l345 674h-106c-112 0 -143 -40 -170 -213h-44l18 237h423v-24l-346 -674h137zM223 797l-105 110h44l89 -68l90 68h44l-106 -110h-56z" />
    <glyph glyph-name="zcaron" unicode="&#x17e;" horiz-adv-x="405" 
d="M170 472l-106 166h34l100 -124l100 124h33l-105 -166h-56zM361 400v-15l-234 -370h88c74 0 105 35 114 125h38l-6 -140h-332v15l234 370h-75c-67 0 -96 -35 -104 -117h-39l8 132h308z" />
    <glyph glyph-name="longs" unicode="&#x17f;" horiz-adv-x="291" 
d="M268 730c72 0 115 -25 115 -65c0 -23 -20 -37 -50 -37c-28 0 -49 13 -49 30s12 19 12 38c0 18 -9 27 -26 27c-35 0 -88 -22 -88 -148v-560h83v-15h-239v15h71v368h-79c70 11 79 73 79 145v37c0 89 38 165 171 165z" />
    <glyph glyph-name="uni018F" unicode="&#x18f;" horiz-adv-x="516" 
d="M268 -10c-101 0 -228 68 -228 228c0 82 36 151 92 182h232c-8 117 -11 324 -138 324c-58 -1 -94 -63 -94 -92c0 -5 2 -8 4 -11h-50c0 63 60 114 142 114c172 0 248 -207 248 -398c0 -193 -82 -347 -208 -347zM368 196c0 6 2 22 2 42c0 39 0 95 -4 114h-200
c-16 -30 -26 -86 -26 -141c0 -49 4 -91 14 -124c16 -54 76 -85 112 -85c78 0 102 126 102 194z" />
    <glyph glyph-name="florin" unicode="&#x192;" horiz-adv-x="457" 
d="M96 -123c0 -19 -14 -17 -14 -43c0 -17 3 -27 8 -27c70 0 76 197 88 370l15 229h-97v25h101l5 60c17 190 101 239 169 239c51 0 86 -28 86 -68c0 -26 -20 -44 -50 -44c-26 0 -46 13 -46 29c0 9 3 20 12 33v16c0 15 -5 26 -12 26c-37 0 -65 -79 -75 -211l-5 -80h111v-25
h-115l-15 -245c-11 -160 -35 -366 -176 -366c-50 0 -89 29 -89 66c0 28 22 48 52 48c26 0 47 -14 47 -32z" />
    <glyph glyph-name="uni01C4" unicode="&#x1c4;" horiz-adv-x="1168" 
d="M614 365c0 -173 -63 -365 -314 -365h-287v24h91v674h-91v24h272c98 0 161 -17 207 -52c79 -60 122 -169 122 -305zM250 24h58c133 0 188 93 188 337c0 240 -59 337 -202 337h-44c-38 0 -45 -6 -45 -69v-537c0 -64 7 -68 45 -68zM921 24c121 0 150 89 169 240h45l-15 -264
h-456v24l345 674h-106c-112 0 -143 -40 -170 -213h-44l18 237h423v-24l-346 -674h137zM871 797l-105 110h44l89 -68l90 68h44l-106 -110h-56z" />
    <glyph glyph-name="uni01C5" unicode="&#x1c5;" horiz-adv-x="1053" 
d="M614 365c0 -173 -63 -365 -314 -365h-287v24h91v674h-91v24h272c98 0 161 -17 207 -52c79 -60 122 -169 122 -305zM250 24h58c133 0 188 93 188 337c0 240 -59 337 -202 337h-44c-38 0 -45 -6 -45 -69v-537c0 -64 7 -68 45 -68zM818 472l-106 166h34l100 -124l100 124h33
l-105 -166h-56zM1009 400v-15l-234 -370h88c74 0 105 35 114 125h38l-6 -140h-332v15l234 370h-75c-67 0 -96 -35 -104 -117h-39l8 132h308z" />
    <glyph glyph-name="uni01C6" unicode="&#x1c6;" horiz-adv-x="907" 
d="M342 0v64c-27 -53 -64 -76 -120 -76c-104 0 -179 96 -179 215c0 120 77 209 179 209c50 0 89 -20 120 -63v366h-93v15h177v-715h73v-15h-157zM239 393c-40 0 -101 -32 -101 -202c0 -108 38 -182 100 -182s102 83 102 196c0 151 -60 188 -101 188zM672 472l-106 166h34
l100 -124l100 124h33l-105 -166h-56zM863 400v-15l-234 -370h88c74 0 105 35 114 125h38l-6 -140h-332v15l234 370h-75c-67 0 -96 -35 -104 -117h-39l8 132h308z" />
    <glyph glyph-name="uni01C7" unicode="&#x1c7;" horiz-adv-x="1026" 
d="M299 24c114 0 171 48 195 235h42l-18 -259h-505v24h91v674h-91v24h283v-24h-90v-615c0 -40 1 -59 57 -59h36zM931 262c0 -169 -30 -277 -193 -277c-138 0 -171 102 -171 160c0 68 37 118 87 118c40 0 68 -28 68 -66c0 -33 -25 -58 -57 -58c-10 0 -17 1 -31 5h-3
c-4 0 -6 -15 -6 -33c0 -29 20 -110 98 -110c95 0 107 123 107 262v435h-90v24h282v-24h-91v-436z" />
    <glyph glyph-name="uni01C8" unicode="&#x1c8;" horiz-adv-x="804" 
d="M299 24c114 0 171 48 195 235h42l-18 -259h-505v24h91v674h-91v24h283v-24h-90v-615c0 -40 1 -59 57 -59h36zM749 24c0 -98 -3 -224 -153 -224c-57 0 -97 24 -97 59c0 21 22 37 51 37c24 0 46 -12 46 -27c0 -9 -10 -13 -10 -34c0 -14 7 -26 18 -26c49 0 61 78 61 173v403
h-87v15h171v-376zM706 598c26 0 48 -21 48 -49s-22 -48 -48 -48s-48 20 -48 48s22 49 48 49z" />
    <glyph glyph-name="uni01C9" unicode="&#x1c9;" horiz-adv-x="497" 
d="M0 715v15h164v-715h75v-15h-230v15h71v700h-80zM442 24c0 -98 -3 -224 -153 -224c-57 0 -97 24 -97 59c0 21 22 37 51 37c24 0 46 -12 46 -27c0 -9 -10 -13 -10 -34c0 -14 7 -26 18 -26c49 0 61 78 61 173v403h-87v15h171v-376zM400 598c24 0 46 -21 46 -49
s-22 -48 -46 -48c-26 0 -48 20 -48 48s22 49 48 49z" />
    <glyph glyph-name="uni01CA" unicode="&#x1ca;" horiz-adv-x="1151" 
d="M190 722l334 -553v529h-97v24h246v-24c-66 0 -98 -18 -98 -152v-546h-40l-375 611v-587h98v-24h-246v24h97v674h-98v24h179zM1056 262c0 -169 -30 -277 -193 -277c-138 0 -171 102 -171 160c0 68 37 118 87 118c40 0 68 -28 68 -66c0 -33 -25 -58 -57 -58
c-10 0 -17 1 -31 5h-3c-4 0 -6 -15 -6 -33c0 -29 20 -110 98 -110c95 0 107 123 107 262v435h-90v24h282v-24h-91v-436z" />
    <glyph glyph-name="uni01CB" unicode="&#x1cb;" horiz-adv-x="929" 
d="M190 722l334 -553v529h-97v24h246v-24c-66 0 -98 -18 -98 -152v-546h-40l-375 611v-587h98v-24h-246v24h97v674h-98v24h179zM874 24c0 -98 -3 -224 -153 -224c-57 0 -97 24 -97 59c0 21 22 37 51 37c24 0 46 -12 46 -27c0 -9 -10 -13 -10 -34c0 -14 7 -26 18 -26
c49 0 61 78 61 173v403h-87v15h171v-376zM832 598c24 0 46 -21 46 -49s-22 -48 -46 -48c-26 0 -48 20 -48 48s22 49 48 49z" />
    <glyph glyph-name="uni01CC" unicode="&#x1cc;" horiz-adv-x="784" 
d="M178 400v-63c38 50 82 75 139 75c96 -1 141 -74 141 -168v-229h70v-15h-227v15h70v234c0 44 -21 137 -80 137c-97 0 -113 -123 -113 -190v-181h73v-15h-228v15h70v370h-70v15h155zM729 24c0 -98 -3 -224 -153 -224c-57 0 -97 24 -97 59c0 21 22 37 51 37
c24 0 46 -12 46 -27c0 -9 -10 -13 -10 -34c0 -14 7 -26 18 -26c49 0 61 78 61 173v403h-87v15h171v-376zM686 598c26 0 48 -21 48 -49s-22 -48 -48 -48s-48 20 -48 48s22 49 48 49z" />
    <glyph glyph-name="uni01F0" unicode="&#x1f0;" horiz-adv-x="251" 
d="M124 472l-104 166h34l98 -124l100 124h35l-107 -166h-56zM196 24c0 -98 -3 -224 -153 -224c-57 0 -97 24 -97 59c0 21 22 37 51 37c24 0 46 -12 46 -27c0 -9 -10 -13 -10 -34c0 -14 7 -26 18 -26c49 0 61 78 61 173v403h-87v15h171v-376z" />
    <glyph glyph-name="uni01F1" unicode="&#x1f1;" horiz-adv-x="1168" 
d="M614 365c0 -173 -63 -365 -314 -365h-287v24h91v674h-91v24h272c98 0 161 -17 207 -52c79 -60 122 -169 122 -305zM250 24h58c133 0 188 93 188 337c0 240 -59 337 -202 337h-44c-38 0 -45 -6 -45 -69v-537c0 -64 7 -68 45 -68zM921 24c121 0 150 89 169 240h45l-15 -264
h-456v24l345 674h-106c-112 0 -143 -40 -170 -213h-44l18 237h423v-24l-346 -674h137z" />
    <glyph glyph-name="uni01F2" unicode="&#x1f2;" horiz-adv-x="1053" 
d="M614 365c0 -173 -63 -365 -314 -365h-287v24h91v674h-91v24h272c98 0 161 -17 207 -52c79 -60 122 -169 122 -305zM250 24h58c133 0 188 93 188 337c0 240 -59 337 -202 337h-44c-38 0 -45 -6 -45 -69v-537c0 -64 7 -68 45 -68zM1009 400v-15l-234 -370h88
c74 0 105 35 114 125h38l-6 -140h-332v15l234 370h-75c-67 0 -96 -35 -104 -117h-39l8 132h308z" />
    <glyph glyph-name="uni01F3" unicode="&#x1f3;" horiz-adv-x="907" 
d="M342 0v64c-27 -53 -64 -76 -120 -76c-104 0 -179 96 -179 215c0 120 77 209 179 209c50 0 89 -20 120 -63v366h-93v15h177v-715h73v-15h-157zM239 393c-40 0 -101 -32 -101 -202c0 -108 38 -182 100 -182s102 83 102 196c0 151 -60 188 -101 188zM863 400v-15l-234 -370
h88c74 0 105 35 114 125h38l-6 -140h-332v15l234 370h-75c-67 0 -96 -35 -104 -117h-39l8 132h308z" />
    <glyph glyph-name="uni01F4" unicode="&#x1f4;" horiz-adv-x="654" 
d="M330 4c57 0 143 31 143 214v76h-91v24h274v-24h-89v-309h-39l-31 98c-55 -68 -104 -95 -175 -95c-116 0 -289 93 -289 361c0 265 163 388 298 388c62 0 136 -35 186 -113v108h36l12 -267h-41c-34 170 -101 256 -196 256c-115 0 -178 -130 -178 -372
c0 -290 108 -345 180 -345zM250 797l114 106c24 19 29 20 41 20h3c16 0 32 -11 32 -23c0 -10 -12 -24 -22 -30l-130 -73h-38z" />
    <glyph glyph-name="uni01F5" unicode="&#x1f5;" horiz-adv-x="439" 
d="M165 475l116 140c22 25 31 31 44 31c17 0 32 -11 32 -23c0 -10 -11 -20 -22 -30l-132 -118h-38zM226 146c-26 0 -47 6 -52 6c-27 0 -78 -24 -78 -47c0 -34 66 -35 138 -35h12c59 0 168 -43 168 -132c0 -79 -62 -138 -202 -138c-119 0 -186 43 -186 101c0 16 12 38 30 60
l71 -26c-12 -12 -24 -36 -24 -53c0 -47 43 -74 116 -74c97 0 112 55 112 111c0 36 -34 86 -112 87h-13c-108 0 -160 24 -160 80v6c0 40 48 63 81 72c-44 20 -71 63 -71 113c0 76 71 135 177 135c44 0 72 -7 110 -30c31 15 40 30 40 42c0 17 -16 30 -16 41c0 31 17 40 37 40
h1c20 0 35 -17 35 -48c-13 -50 -40 -69 -76 -89c28 -27 36 -56 36 -88c0 -113 -138 -134 -174 -134zM231 403c-58 0 -91 -52 -91 -126c0 -72 33 -116 88 -116s88 44 88 118c0 73 -30 124 -85 124z" />
    <glyph glyph-name="AEacute" unicode="&#x1fc;" horiz-adv-x="854" 
d="M418 754l114 106c24 19 30 20 40 20h4c16 0 32 -11 32 -23c0 -10 -12 -24 -22 -30l-130 -73h-38zM764 482c-23 162 -50 219 -199 219h-20c-44 0 -52 -10 -52 -66v-262h125v127h45v-285h-45v138h-125v-269c0 -34 1 -61 60 -61h29c113 0 165 47 196 229h41l-17 -252h-501
v24h91v255h-193l-111 -255h111v-24h-203v24h36l308 674h-140v24h594l12 -240h-42zM392 320v378c-4 0 -7 -7 -16 -27l-156 -351h172z" />
    <glyph glyph-name="aeacute" unicode="&#x1fd;" horiz-adv-x="688" 
d="M321 488l116 140c22 25 31 31 44 31c17 0 32 -11 32 -23c0 -10 -11 -20 -22 -30l-132 -118h-38zM298 114c-9 27 -14 56 -14 87c0 6 1 12 1 18c-70 -16 -157 -34 -157 -127c0 -49 29 -86 67 -86c57 0 97 62 103 108zM381 242h154c19 1 34 33 34 53c0 83 -33 107 -88 107
c-58 0 -100 -113 -100 -160zM379 194c0 -81 24 -188 121 -188c59 0 96 27 132 98l32 -8c-36 -72 -95 -108 -179 -108c-83 1 -138 29 -170 84l-9 -12c-38 -46 -79 -72 -140 -72c-78 0 -132 37 -132 92c0 63 67 120 253 159c3 18 7 35 13 51c0 51 -10 112 -81 112
c-41 0 -77 -22 -77 -49s19 -31 19 -51c0 -19 -22 -32 -49 -32c-32 0 -52 17 -52 43c0 58 74 99 173 99c61 0 98 -20 119 -47c34 30 80 47 131 47c107 0 181 -65 181 -183v-2h-284c-1 -11 -1 -22 -1 -33z" />
    <glyph glyph-name="Oslashacute" unicode="&#x1fe;" horiz-adv-x="656" 
d="M302 749l114 106c24 19 30 20 40 20h4c16 0 32 -11 32 -23c0 -10 -12 -24 -22 -30l-130 -73h-38zM33 361c0 177 114 370 296 370c62 0 112 -20 164 -64l54 95h51l-73 -110c61 -74 97 -180 97 -285c0 -141 -82 -375 -295 -375c-66 0 -119 24 -172 75l-83 -143h-51l102 158
c-56 71 -90 177 -90 279zM173 142l281 482c-30 62 -72 92 -127 92c-117 0 -179 -125 -179 -362c0 -92 9 -162 25 -212zM328 7c70 0 176 51 176 366c0 105 -8 167 -26 225l-282 -483c31 -71 75 -108 132 -108z" />
    <glyph glyph-name="oslashacute" unicode="&#x1ff;" horiz-adv-x="462" 
d="M170 496l116 140c22 25 31 31 44 31c17 0 32 -11 32 -23c0 -10 -11 -20 -22 -30l-132 -118h-38zM235 402c-65 0 -98 -68 -98 -202c0 -38 2 -71 8 -99l144 275c-15 17 -33 26 -54 26zM354 500h52l-65 -125c50 -38 83 -103 83 -176c0 -117 -85 -211 -191 -211
c-30 0 -59 8 -84 21l-57 -109h-52l71 136c-42 39 -69 97 -69 163c0 120 84 213 193 213c23 0 45 -4 66 -13zM315 325l-149 -283c16 -29 39 -44 67 -44c62 0 97 71 97 202c0 51 -5 93 -15 125z" />
    <glyph glyph-name="uni0200" unicode="&#x200;" horiz-adv-x="621" 
d="M326 730l242 -706h58v-24h-268v24h99l-68 219h-216l-65 -219h116v-24h-229v24h55l237 706h39zM282 585l-95 -309h189zM373 797l-16 2l-86 75c-10 13 -16 24 -16 37c0 7 12 14 26 14c22 0 44 -19 62 -59zM267 797l-18 2l-84 75c-12 14 -16 24 -16 37c0 7 12 14 26 14
c22 0 44 -21 62 -59z" />
    <glyph glyph-name="uni0201" unicode="&#x201;" horiz-adv-x="485" 
d="M297 472l-17 2l-69 113c-11 13 -16 24 -16 37c0 7 12 14 26 14c21 0 35 -16 47 -59zM191 472l-18 2l-68 113c-12 14 -16 24 -16 37c0 7 12 14 26 14c21 0 35 -17 47 -59zM300 287c0 51 -9 115 -81 115c-41 0 -77 -22 -77 -49s19 -31 19 -51c0 -19 -22 -32 -49 -32
c-32 0 -52 17 -52 43c0 58 74 99 173 99c152 0 152 -88 152 -131v-185c0 -56 10 -77 31 -77c18 0 52 10 52 14c0 -19 -43 -45 -83 -45c-42 0 -65 26 -79 72c-38 -46 -79 -72 -140 -72c-78 0 -132 37 -132 92c0 65 70 123 266 162v45zM300 223c-72 -17 -172 -31 -172 -131
c0 -49 29 -86 67 -86s67 25 88 63c14 26 17 40 17 100v54z" />
    <glyph glyph-name="uni0202" unicode="&#x202;" horiz-adv-x="621" 
d="M326 730l242 -706h58v-24h-268v24h99l-68 219h-216l-65 -219h116v-24h-229v24h55l237 706h39zM282 585l-95 -309h189zM382 821v2c0 31 -24 55 -72 55c-52 0 -87 -31 -87 -77h-36v2c0 54 52 112 122 112c69 0 125 -27 125 -115v-3z" />
    <glyph glyph-name="uni0203" unicode="&#x203;" horiz-adv-x="485" 
d="M308 496c-2 51 -23 72 -72 72c-52 0 -85 -32 -86 -92h-36v2c0 88 52 126 122 126c69 0 124 -42 124 -129v-3zM300 287c0 51 -9 115 -81 115c-41 0 -77 -22 -77 -49s19 -31 19 -51c0 -19 -22 -32 -49 -32c-32 0 -52 17 -52 43c0 58 74 99 173 99c152 0 152 -88 152 -131
v-185c0 -56 10 -77 31 -77c18 0 52 10 52 14c0 -19 -43 -45 -83 -45c-42 0 -65 26 -79 72c-38 -46 -79 -72 -140 -72c-78 0 -132 37 -132 92c0 65 70 123 266 162v45zM300 223c-72 -17 -172 -31 -172 -131c0 -49 29 -86 67 -86s67 25 88 63c14 26 17 40 17 100v54z" />
    <glyph glyph-name="uni0204" unicode="&#x204;" horiz-adv-x="589" 
d="M319 24c126 0 166 59 194 228h42l-17 -252h-525v24h91v674h-91v24h515l11 -240h-41c-28 202 -82 216 -198 216h-44c-43 0 -52 -7 -52 -63v-262h136v127h44v-285h-44v138h-136v-266c0 -47 16 -63 59 -63h56zM396 797l-17 2l-85 75c-11 13 -16 24 -16 37c0 7 12 14 26 14
c21 0 43 -19 61 -59zM290 797l-18 2l-84 75c-12 14 -16 24 -16 37c0 7 12 14 26 14c21 0 44 -21 61 -59z" />
    <glyph glyph-name="uni0205" unicode="&#x205;" horiz-adv-x="452" 
d="M315 472l-17 2l-69 113c-11 13 -16 24 -16 37c0 7 12 14 26 14c21 0 35 -16 47 -59zM209 472l-18 2l-68 113c-12 14 -16 24 -16 37c0 7 12 14 26 14c21 0 35 -17 47 -59zM138 194c0 -81 24 -188 121 -188c59 0 96 27 132 98l32 -8c-36 -72 -95 -108 -179 -108
c-135 1 -201 97 -201 213c0 127 86 211 199 211c107 0 181 -65 181 -183v-2h-284c-1 -11 -1 -22 -1 -33zM140 242h154c19 1 34 33 34 53c0 83 -33 107 -88 107c-58 0 -100 -113 -100 -160z" />
    <glyph glyph-name="uni0206" unicode="&#x206;" horiz-adv-x="589" 
d="M319 24c126 0 166 59 194 228h42l-17 -252h-525v24h91v674h-91v24h515l11 -240h-41c-28 202 -82 216 -198 216h-44c-43 0 -52 -7 -52 -63v-262h136v127h44v-285h-44v138h-136v-266c0 -47 16 -63 59 -63h56zM356 821c0 32 -24 57 -72 57c-52 0 -88 -31 -88 -77h-36v2
c0 54 52 112 122 112s126 -27 126 -115v-3z" />
    <glyph glyph-name="uni0207" unicode="&#x207;" horiz-adv-x="452" 
d="M325 496c-2 51 -23 72 -72 72c-52 0 -86 -32 -87 -92h-36v2c0 88 52 126 122 126c69 0 125 -42 125 -129v-3zM138 194c0 -81 24 -188 121 -188c59 0 96 27 132 98l32 -8c-36 -72 -95 -108 -179 -108c-135 1 -201 97 -201 213c0 127 86 211 199 211
c107 0 181 -65 181 -183v-2h-284c-1 -11 -1 -22 -1 -33zM140 242h154c19 1 34 33 34 53c0 83 -33 107 -88 107c-58 0 -100 -113 -100 -160z" />
    <glyph glyph-name="uni0208" unicode="&#x208;" horiz-adv-x="309" 
d="M205 698v-674h91v-24h-283v24h91v674h-91v24h283v-24h-91zM266 797l-16 2l-86 75c-10 13 -16 24 -16 37c0 7 12 14 26 14c22 0 44 -19 62 -59zM160 797l-18 2l-84 75c-12 14 -16 24 -16 37c0 7 12 14 26 14c22 0 44 -21 62 -59z" />
    <glyph glyph-name="uni0209" unicode="&#x209;" horiz-adv-x="263" 
d="M212 472l-18 2l-68 113c-11 13 -16 24 -16 37c0 7 12 14 26 14c21 0 35 -16 47 -59zM106 472l-18 2l-68 113c-12 14 -16 24 -16 37c0 7 12 14 26 14c21 0 35 -17 47 -59zM184 400v-385h74v-15h-230v15h71v370h-82v15h167z" />
    <glyph glyph-name="uni020A" unicode="&#x20a;" horiz-adv-x="309" 
d="M205 698v-674h91v-24h-283v24h91v674h-91v24h283v-24h-91zM226 821v2c0 31 -24 55 -72 55c-52 0 -87 -31 -87 -77h-36v2c0 54 52 112 122 112c69 0 125 -27 125 -115v-3z" />
    <glyph glyph-name="uni020B" unicode="&#x20b;" horiz-adv-x="263" 
d="M209 496c-2 51 -23 72 -72 72c-52 0 -86 -32 -87 -92h-36v2c0 88 52 126 122 126c69 0 125 -42 125 -129v-3zM184 400v-385h74v-15h-230v15h71v370h-82v15h167z" />
    <glyph glyph-name="uni020C" unicode="&#x20c;" horiz-adv-x="653" 
d="M329 737c164 0 291 -164 291 -376c0 -214 -127 -376 -294 -376s-294 162 -294 375c0 178 98 377 297 377zM328 721c-168 0 -178 -252 -178 -358c0 -102 8 -362 176 -362c169 0 176 256 176 360c0 99 -7 360 -174 360zM438 797l-17 2l-85 75c-11 13 -16 24 -16 37
c0 7 12 14 26 14c21 0 43 -19 61 -59zM332 797l-18 2l-84 75c-12 14 -16 24 -16 37c0 7 12 14 26 14c21 0 44 -21 61 -59z" />
    <glyph glyph-name="uni020D" unicode="&#x20d;" horiz-adv-x="462" 
d="M308 472l-17 2l-69 113c-11 13 -16 24 -16 37c0 7 12 14 26 14c21 0 35 -16 47 -59zM202 472l-18 2l-68 113c-12 14 -16 24 -16 37c0 7 12 14 26 14c21 0 35 -17 47 -59zM235 412c104 0 189 -96 189 -213s-85 -211 -191 -211c-107 0 -191 94 -191 211
c0 120 84 213 193 213zM235 402c-65 0 -98 -68 -98 -202c0 -131 34 -202 96 -202s97 71 97 202s-35 202 -95 202z" />
    <glyph glyph-name="uni020E" unicode="&#x20e;" horiz-adv-x="653" 
d="M329 737c164 0 291 -164 291 -376c0 -214 -127 -376 -294 -376s-294 162 -294 375c0 178 98 377 297 377zM328 721c-168 0 -178 -252 -178 -358c0 -102 8 -362 176 -362c169 0 176 256 176 360c0 99 -7 360 -174 360zM398 821c0 32 -24 57 -72 57c-52 0 -88 -31 -88 -77
h-36v2c0 54 52 112 122 112s126 -27 126 -115v-3z" />
    <glyph glyph-name="uni020F" unicode="&#x20f;" horiz-adv-x="462" 
d="M304 496c-2 51 -23 72 -72 72c-52 0 -85 -32 -86 -92h-36v2c0 88 52 126 122 126c69 0 124 -42 124 -129v-3zM235 412c104 0 189 -96 189 -213s-85 -211 -191 -211c-107 0 -191 94 -191 211c0 120 84 213 193 213zM235 402c-65 0 -98 -68 -98 -202
c0 -131 34 -202 96 -202s97 71 97 202s-35 202 -95 202z" />
    <glyph glyph-name="uni0210" unicode="&#x210;" horiz-adv-x="612" 
d="M205 362v-338h91v-24h-283v24h90v674h-90v24h295c145 0 228 -63 228 -172c0 -104 -59 -165 -181 -186c67 -21 99 -51 118 -150l11 -86c14 -82 24 -92 41 -92c22 0 31 32 34 107h41c-3 -105 -36 -153 -107 -153c-70 0 -102 44 -113 151l-10 79c-12 62 -17 142 -119 142
h-46zM295 383c106 0 129 72 129 166c0 105 -37 149 -118 149h-45c-52 0 -56 -1 -56 -46v-269h90zM363 797l-16 2l-86 75c-10 13 -16 24 -16 37c0 7 12 14 26 14c22 0 44 -19 62 -59zM257 797l-18 2l-84 75c-12 14 -16 24 -16 37c0 7 12 14 26 14c22 0 44 -21 62 -59z" />
    <glyph glyph-name="uni0211" unicode="&#x211;" horiz-adv-x="399" 
d="M283 472l-16 2l-70 113c-11 13 -16 24 -16 37c0 7 12 14 26 14c21 0 35 -16 47 -59zM177 472l-18 2l-68 113c-12 14 -16 24 -16 37c0 7 12 14 26 14c21 0 35 -17 47 -59zM296 378c-82 -11 -118 -171 -118 -268v-95h86v-15h-240v15h70v370h-74v15h158v-121
c28 77 75 121 129 121c48 0 78 -23 78 -55c0 -26 -22 -44 -55 -44c-28 0 -49 14 -49 33s3 29 15 44z" />
    <glyph glyph-name="uni0212" unicode="&#x212;" horiz-adv-x="612" 
d="M205 362v-338h91v-24h-283v24h90v674h-90v24h295c145 0 228 -63 228 -172c0 -104 -59 -165 -181 -186c67 -21 99 -51 118 -150l11 -86c14 -82 24 -92 41 -92c22 0 31 32 34 107h41c-3 -105 -36 -153 -107 -153c-70 0 -102 44 -113 151l-10 79c-12 62 -17 142 -119 142
h-46zM295 383c106 0 129 72 129 166c0 105 -37 149 -118 149h-45c-52 0 -56 -1 -56 -46v-269h90zM378 821v2c0 31 -24 55 -72 55c-52 0 -87 -31 -87 -77h-36v2c0 54 52 112 122 112c69 0 125 -27 125 -115v-3z" />
    <glyph glyph-name="uni0213" unicode="&#x213;" horiz-adv-x="399" 
d="M274 496c-2 51 -23 72 -72 72c-52 0 -86 -32 -87 -92h-36v2c0 88 52 126 122 126c69 0 125 -42 125 -129v-3zM296 378c-82 -11 -118 -171 -118 -268v-95h86v-15h-240v15h70v370h-74v15h158v-121c28 77 75 121 129 121c48 0 78 -23 78 -55c0 -26 -22 -44 -55 -44
c-28 0 -49 14 -49 33s3 29 15 44z" />
    <glyph glyph-name="uni0214" unicode="&#x214;" horiz-adv-x="677" 
d="M333 -15c-229 0 -239 166 -239 208v505h-89v24h283v-24h-92v-440c0 -102 5 -129 27 -169c28 -51 75 -81 133 -81c67 0 120 40 148 111c15 38 19 73 19 160v419h-96v24h247v-24h-98v-425c0 -112 -17 -288 -243 -288zM452 797l-18 2l-84 75c-12 13 -16 24 -16 37
c0 7 12 14 26 14c20 0 42 -19 60 -59zM346 797l-18 2l-84 75c-12 14 -16 24 -16 37c0 7 12 14 26 14c20 0 44 -21 60 -59z" />
    <glyph glyph-name="uni0215" unicode="&#x215;" horiz-adv-x="531" 
d="M337 472l-17 2l-69 113c-11 13 -16 24 -16 37c0 7 12 14 26 14c21 0 35 -16 47 -59zM231 472l-18 2l-68 113c-12 14 -16 24 -16 37c0 7 12 14 26 14c21 0 35 -17 47 -59zM247 16c47 0 117 34 117 188v181h-86v15h170v-384h79v-15h-163v69c-39 -57 -79 -82 -137 -82
c-105 0 -140 50 -140 132v265h-72v15h158v-267c0 -60 6 -117 74 -117z" />
    <glyph glyph-name="uni0216" unicode="&#x216;" horiz-adv-x="677" 
d="M333 -15c-229 0 -239 166 -239 208v505h-89v24h283v-24h-92v-440c0 -102 5 -129 27 -169c28 -51 75 -81 133 -81c67 0 120 40 148 111c15 38 19 73 19 160v419h-96v24h247v-24h-98v-425c0 -112 -17 -288 -243 -288zM411 821v2c0 31 -24 55 -72 55c-52 0 -87 -31 -87 -77
h-36v2c0 54 52 112 122 112c69 0 125 -27 125 -115v-3z" />
    <glyph glyph-name="uni0217" unicode="&#x217;" horiz-adv-x="531" 
d="M342 496c-2 51 -23 72 -72 72c-52 0 -85 -32 -86 -92h-36v2c0 88 52 126 122 126c69 0 124 -42 124 -129v-3zM247 16c47 0 117 34 117 188v181h-86v15h170v-384h79v-15h-163v69c-39 -57 -79 -82 -137 -82c-105 0 -140 50 -140 132v265h-72v15h158v-267
c0 -60 6 -117 74 -117z" />
    <glyph glyph-name="Scommaaccent" unicode="&#x218;" horiz-adv-x="534" 
d="M235 -268l-18 7c48 33 71 65 71 95c0 12 0 17 -2 17h-2c-2 -1 -9 -1 -12 -1c-30 0 -43 21 -43 38c0 18 17 36 45 36c36 0 50 -33 50 -67c0 -44 -24 -86 -89 -125zM291 0c110 0 137 101 137 163c0 133 -93 145 -123 154l-80 25c-125 37 -172 89 -172 193
c0 121 76 202 188 202h4c96 0 154 -36 182 -117v102h36l10 -237h-41c-20 96 -76 235 -190 235c-70 0 -116 -57 -116 -140c0 -72 33 -122 108 -145l90 -28c62 -17 177 -43 177 -213c0 -138 -93 -210 -218 -210c-73 0 -164 38 -204 110l1 -106h-37l-3 273h40
c21 -130 84 -261 211 -261z" />
    <glyph glyph-name="scommaaccent" unicode="&#x219;" horiz-adv-x="415" 
d="M179 -264l-18 7c48 33 71 65 71 95c0 12 0 17 -2 17h-2c-2 -1 -9 -1 -12 -1c-30 0 -43 21 -43 38c0 18 17 36 45 36c36 0 50 -33 50 -67c0 -44 -24 -86 -89 -125zM353 400v-119h-34v2c0 49 -60 118 -112 118c-48 0 -97 -32 -97 -77c0 -61 46 -72 94 -84l45 -10
c74 -13 131 -36 131 -128c0 -76 -71 -114 -159 -114c-44 0 -103 14 -139 44v-32h-33v143h39c20 -94 62 -145 135 -145c52 0 98 37 98 87c0 45 -23 67 -93 88l-47 10c-64 14 -127 34 -127 110c0 71 73 119 152 119c45 0 80 -16 113 -41v29h34z" />
    <glyph glyph-name="uni021A" unicode="&#x21a;" horiz-adv-x="586" 
d="M257 -252l-18 7c48 33 71 65 71 95c0 12 1 17 -1 17h-2c-2 -1 -9 -1 -12 -1c-30 0 -44 21 -44 38c0 18 17 36 45 36c36 0 50 -33 50 -67c0 -44 -24 -86 -89 -125zM206 703c-56 0 -116 -44 -141 -244h-41l12 263h512l14 -263h-42c-18 147 -56 244 -140 244
c-25 0 -36 -17 -36 -54v-625h96v-24h-295v24h97v625c0 37 -10 54 -36 54z" />
    <glyph glyph-name="uni021B" unicode="&#x21b;" horiz-adv-x="355" 
d="M139 -264l-18 7c48 33 71 65 71 95c0 12 1 17 -1 17h-2c-2 -1 -9 -1 -12 -1c-30 0 -44 21 -44 38c0 18 17 36 45 36c36 0 50 -33 50 -67c0 -44 -24 -86 -89 -125zM335 138c0 -64 -27 -150 -134 -150c-111 0 -114 66 -114 135v260h-72v17c70 5 109 81 118 175h40v-175h122
v-17h-122v-263c0 -47 5 -108 50 -108c42 0 65 42 68 126h44z" />
    <glyph glyph-name="uni021E" unicode="&#x21e;" horiz-adv-x="688" 
d="M483 358h-279v-334h92v-24h-283v24h90v674h-90v24h283v-24h-92v-307h279v307h-88v24h280v-24h-91v-674h91v-24h-283v24h91v334zM316 797l-106 110h44l90 -68l90 68h44l-106 -110h-56z" />
    <glyph glyph-name="uni021F" unicode="&#x21f;" horiz-adv-x="521" 
d="M-3 715v15h167v-400c39 57 82 82 139 82c117 0 141 -71 141 -164v-233h70v-15h-227v15h70v238c0 49 -8 135 -80 135h-1c-70 0 -112 -119 -112 -185v-188h73v-15h-228v15h70v700h-82zM227 790l-105 166h34l99 -124l100 124h34l-106 -166h-56z" />
    <glyph glyph-name="uni0237" unicode="&#x237;" horiz-adv-x="251" 
d="M196 24c0 -98 -3 -224 -153 -224c-57 0 -97 24 -97 59c0 21 22 37 51 37c24 0 46 -12 46 -27c0 -9 -10 -13 -10 -34c0 -14 7 -26 18 -26c49 0 61 78 61 173v403h-87v15h171v-376z" />
    <glyph glyph-name="uni0259" unicode="&#x259;" horiz-adv-x="452" 
d="M217 -12c-107 0 -180 66 -180 183l-1 2h284c1 11 1 22 1 33c0 91 -28 188 -120 188c-59 0 -96 -27 -132 -98l-33 8c36 72 95 108 179 108c131 -1 201 -90 201 -213c0 -127 -86 -211 -199 -211zM131 105c0 -66 18 -107 88 -107c58 0 101 113 101 160h-154
c-19 -1 -35 -33 -35 -53z" />
    <glyph glyph-name="circumflex" unicode="&#x2c6;" horiz-adv-x="325" 
d="M190 701l106 -166h-34l-99 125l-100 -125h-34l105 166h56z" />
    <glyph glyph-name="caron" unicode="&#x2c7;" horiz-adv-x="328" 
d="M136 535l-105 166h34l99 -124l100 124h34l-106 -166h-56z" />
    <glyph glyph-name="breve" unicode="&#x2d8;" horiz-adv-x="330" 
d="M251 663l52 24v-3c0 -87 -68 -149 -137 -149c-70 0 -122 38 -122 126v2h36c1 -60 35 -92 87 -92c49 0 82 41 84 92z" />
    <glyph glyph-name="dotaccent" unicode="&#x2d9;" horiz-adv-x="193" 
d="M94 644c25 0 47 -21 47 -49s-22 -48 -47 -48c-26 0 -48 20 -48 48s22 49 48 49z" />
    <glyph glyph-name="ring" unicode="&#x2da;" horiz-adv-x="262" 
d="M130 709c47 0 85 -36 85 -89c0 -56 -38 -90 -86 -90c-46 0 -84 35 -84 90c0 53 38 89 85 89zM131 704c-28 0 -50 -33 -50 -84c0 -53 22 -86 49 -86c28 0 48 32 48 86c0 51 -21 84 -47 84z" />
    <glyph glyph-name="ogonek" unicode="&#x2db;" horiz-adv-x="214" 
d="M92 0h29c-17 -13 -32 -58 -32 -91c0 -35 15 -48 32 -48c18 0 36 9 59 36l8 -8c-35 -37 -51 -41 -84 -41c-34 0 -60 24 -60 55c0 33 17 73 48 97z" />
    <glyph glyph-name="tilde" unicode="&#x2dc;" horiz-adv-x="363" 
d="M122 647c48 0 92 -60 122 -60c18 0 35 31 40 72h35c-6 -63 -44 -106 -94 -106c-51 0 -83 59 -118 59c-18 0 -32 -21 -38 -59h-34c11 57 45 94 87 94z" />
    <glyph glyph-name="hungarumlaut" unicode="&#x2dd;" horiz-adv-x="282" 
d="M38 535l29 107c14 42 26 59 47 59c14 0 26 -7 26 -14c0 -13 -7 -22 -16 -37l-69 -113zM144 535l29 107c13 42 26 59 47 59c14 0 26 -7 26 -14c0 -13 -6 -21 -16 -37l-68 -113z" />
    <glyph glyph-name="uni030F" unicode="&#x30f;" horiz-adv-x="282" 
d="M246 535l-17 2l-69 113c-11 13 -16 24 -16 37c0 7 12 14 26 14c21 0 35 -16 47 -59zM140 535l-18 2l-68 113c-12 14 -16 24 -16 37c0 7 12 14 26 14c21 0 35 -17 47 -59z" />
    <glyph glyph-name="uni0311" unicode="&#x311;" horiz-adv-x="330" 
d="M239 579c-2 51 -23 72 -72 72c-52 0 -86 -32 -87 -92h-36v2c0 88 52 126 122 126c69 0 125 -42 125 -129v-3z" />
    <glyph glyph-name="uni0326" unicode="&#x326;" horiz-adv-x="533" 
d="M232 -249l-18 7c48 33 71 65 71 95c0 12 0 17 -2 17h-2c-2 -1 -9 -1 -12 -1c-30 0 -43 21 -43 38c0 18 17 36 45 36c36 0 50 -33 50 -67c0 -44 -24 -86 -89 -125z" />
    <glyph glyph-name="uni037B" unicode="&#x37b;" horiz-adv-x="470" 
d="M186 402c-60 0 -60 -108 -91 -108c-23 9 -41 26 -52 42c2 30 70 76 149 76c113 0 195 -92 195 -219c0 -122 -75 -205 -184 -205c-78 0 -122 32 -160 113l38 5c26 -67 57 -93 102 -93c68 0 109 73 109 189c0 120 -49 200 -106 200z" />
    <glyph glyph-name="uni037C" unicode="&#x37c;" horiz-adv-x="470" 
d="M243 264c32 0 58 -28 58 -62c0 -35 -26 -63 -59 -63c-31 0 -59 28 -59 63c0 34 28 62 60 62zM244 402c-57 0 -106 -80 -106 -200c0 -116 41 -189 109 -189c45 0 76 26 102 93l38 -5c-38 -81 -82 -113 -160 -113c-109 0 -184 83 -184 205c0 127 82 219 195 219
c79 0 147 -46 149 -76c-11 -16 -29 -33 -52 -42c-31 0 -31 108 -91 108z" />
    <glyph glyph-name="uni037D" unicode="&#x37d;" horiz-adv-x="470" 
d="M187 264c32 0 60 -28 60 -62c0 -35 -28 -63 -59 -63c-33 0 -59 28 -59 63c0 34 26 62 58 62zM186 402c-60 0 -60 -108 -91 -108c-23 9 -41 26 -52 42c2 30 70 76 149 76c113 0 195 -92 195 -219c0 -122 -75 -205 -184 -205c-78 0 -122 32 -160 113l38 5
c26 -67 57 -93 102 -93c68 0 109 73 109 189c0 120 -49 200 -106 200z" />
    <glyph glyph-name="uni037E" unicode="&#x37e;" horiz-adv-x="205" 
d="M55 -146l-21 8c55 40 82 80 82 116c0 15 0 21 -2 21h-2c-2 -1 -11 -1 -14 -1c-35 0 -50 25 -50 46c0 22 20 44 52 44c41 0 58 -40 58 -82c0 -54 -28 -105 -103 -152zM102 378c31 0 56 -29 56 -62c0 -35 -25 -63 -57 -63c-30 0 -55 28 -55 63c0 33 25 62 56 62z" />
    <glyph glyph-name="tonos" unicode="&#x384;" horiz-adv-x="244" 
d="M80 536l34 168l64 -1l-52 -168z" />
    <glyph glyph-name="dieresistonos" unicode="&#x385;" horiz-adv-x="356" 
d="M92 644c24 0 45 -24 45 -50c0 -28 -21 -50 -46 -50c-23 0 -44 23 -44 50c0 26 21 50 45 50zM258 644c24 0 45 -24 45 -50c0 -28 -21 -50 -46 -50c-24 0 -44 23 -44 50c0 26 20 50 45 50zM144 569l34 168l64 -1l-52 -168z" />
    <glyph glyph-name="Alphatonos" unicode="&#x386;" horiz-adv-x="660" 
d="M343 730l242 -706h58v-24h-268v24h99l-68 219h-216l-65 -219h116v-24h-229v24h55l237 706h39zM299 585l-95 -309h189zM60 555l34 168l64 -1l-52 -168z" />
    <glyph glyph-name="anoteleia" unicode="&#x387;" horiz-adv-x="226" 
d="M111 309c32 0 58 -28 58 -62c0 -35 -26 -63 -59 -63c-31 0 -59 28 -59 63c0 34 28 62 60 62z" />
    <glyph glyph-name="Epsilontonos" unicode="&#x388;" horiz-adv-x="651" 
d="M344 24c126 0 166 59 194 228h42l-17 -252h-525v24h91v674h-91v24h515l11 -240h-41c-28 202 -82 216 -198 216h-44c-43 0 -52 -7 -52 -63v-262h136v127h44v-285h-44v138h-136v-266c0 -47 16 -63 59 -63h56zM-100 558l34 168l64 -1l-52 -168z" />
    <glyph glyph-name="Etatonos" unicode="&#x389;" horiz-adv-x="751" 
d="M509 358h-279v-334h92v-24h-283v24h90v674h-90v24h283v-24h-92v-307h279v307h-88v24h280v-24h-91v-674h91v-24h-283v24h91v334zM-99 558l34 168l64 -1l-52 -168z" />
    <glyph glyph-name="Iotatonos" unicode="&#x38a;" horiz-adv-x="371" 
d="M230 698v-674h91v-24h-283v24h91v674h-91v24h283v-24h-91zM-92 558l34 168l64 -1l-52 -168z" />
    <glyph glyph-name="Omicrontonos" unicode="&#x38c;" horiz-adv-x="706" 
d="M359 737c164 0 291 -164 291 -376c0 -214 -127 -376 -294 -376s-294 162 -294 375c0 178 98 377 297 377zM358 721c-168 0 -178 -252 -178 -358c0 -102 8 -362 176 -362c169 0 176 256 176 360c0 99 -7 360 -174 360zM-29 555l34 168l64 -1l-52 -168z" />
    <glyph glyph-name="Upsilontonos" unicode="&#x38e;" horiz-adv-x="645" 
d="M318 341l155 357h-125v24h247v-23h-10c-69 0 -96 -74 -114 -116l-126 -281v-278h97v-24h-296v24h98v265l-210 409h-59v24h276v-23h-52c-23 0 -30 -15 -30 -32c0 -14 3 -30 8 -40zM-142 558l34 168l64 -1l-52 -168z" />
    <glyph glyph-name="Omegatonos" unicode="&#x38f;" horiz-adv-x="796" 
d="M588 69c36 0 77 10 105 179h42l-26 -248h-240l-6 19c43 83 129 228 129 373c0 213 -94 313 -193 313c-105 0 -190 -99 -190 -316c0 -140 74 -275 127 -370l-8 -19h-240l-17 252h42c28 -169 66 -183 102 -183h61c-64 55 -169 167 -169 327c0 195 129 340 295 340
c168 0 290 -138 290 -332c0 -143 -97 -262 -172 -335h68zM-27 558l34 168l64 -1l-52 -168z" />
    <glyph glyph-name="iotadieresistonos" unicode="&#x390;" horiz-adv-x="263" 
d="M246 0c-124 0 -148 44 -148 148l1 237h-82v15h167v-271c0 -67 16 -113 74 -114v-15h-12zM54 572c24 0 46 -24 46 -50c0 -28 -22 -50 -46 -50s-44 23 -44 50c0 26 20 50 44 50zM220 572c24 0 46 -24 46 -50c0 -28 -22 -50 -46 -50s-44 23 -44 50c0 26 20 50 44 50z
M106 497l34 168l64 -1l-52 -168z" />
    <glyph glyph-name="Alpha" unicode="&#x391;" horiz-adv-x="660" 
d="M343 730l242 -706h58v-24h-268v24h99l-68 219h-216l-65 -219h116v-24h-229v24h55l237 706h39zM299 585l-95 -309h189z" />
    <glyph glyph-name="Beta" unicode="&#x392;" horiz-adv-x="638" 
d="M38 722h307c109 0 208 -43 208 -183c0 -77 -77 -142 -137 -161c115 -25 169 -86 169 -188c0 -119 -89 -190 -238 -190h-309v24h91v674h-91v24zM229 384h73c106 0 146 44 146 156c0 114 -35 158 -131 158h-34c-43 0 -54 -11 -54 -63v-251zM229 363v-263
c0 -70 6 -76 46 -76h36c119 0 163 31 163 169c0 149 -55 170 -173 170h-72z" />
    <glyph glyph-name="Gamma" unicode="&#x393;" horiz-adv-x="599" 
d="M229 635v-611h105v-24h-296v24h91v674h-91v24h509l12 -240h-42c-24 178 -60 219 -198 219h-38c-43 0 -52 -10 -52 -66z" />
    <glyph glyph-name="Delta" unicode="&#x394;" horiz-adv-x="641" 
d="M601 0h-565v25l259 700l39 11l267 -711v-25zM492 47l-203 542l-199 -542h402z" />
    <glyph glyph-name="Epsilon" unicode="&#x395;" horiz-adv-x="651" 
d="M344 24c126 0 166 59 194 228h42l-17 -252h-525v24h91v674h-91v24h515l11 -240h-41c-28 202 -82 216 -198 216h-44c-43 0 -52 -7 -52 -63v-262h136v127h44v-285h-44v138h-136v-266c0 -47 16 -63 59 -63h56z" />
    <glyph glyph-name="Zeta" unicode="&#x396;" horiz-adv-x="597" 
d="M309 24c121 0 150 89 169 240h45l-15 -264h-456v24l345 674h-106c-112 0 -143 -40 -170 -213h-44l18 237h423v-24l-346 -674h137z" />
    <glyph glyph-name="Eta" unicode="&#x397;" horiz-adv-x="751" 
d="M509 358h-279v-334h92v-24h-283v24h90v674h-90v24h283v-24h-92v-307h279v307h-88v24h280v-24h-91v-674h91v-24h-283v24h91v334z" />
    <glyph glyph-name="Theta" unicode="&#x398;" horiz-adv-x="706" 
d="M359 737c164 0 291 -164 291 -376c0 -214 -127 -376 -294 -376s-294 162 -294 375c0 178 98 377 297 377zM358 721c-168 0 -178 -252 -178 -358c0 -102 8 -362 176 -362c169 0 176 256 176 360c0 99 -7 360 -174 360zM357 422c32 0 58 -28 58 -62c0 -35 -26 -63 -59 -63
c-31 0 -59 28 -59 63c0 34 28 62 60 62z" />
    <glyph glyph-name="Iota" unicode="&#x399;" horiz-adv-x="371" 
d="M230 698v-674h91v-24h-283v24h91v674h-91v24h283v-24h-91z" />
    <glyph glyph-name="Kappa" unicode="&#x39a;" horiz-adv-x="719" 
d="M229 311l305 387h-136v24h266v-23c-50 0 -102 -32 -143 -85l-126 -164l205 -370c24 -49 35 -57 80 -57h19v-23h-295v24h116l-194 360l-97 -131v-229h93v-24h-284v24h91v674h-91v24h284v-24h-93v-387z" />
    <glyph glyph-name="Lambda" unicode="&#x39b;" horiz-adv-x="660" 
d="M474 24l-175 561l-174 -561h116v-24h-229v24h55l237 706h39l242 -706h58v-24h-268v24h99z" />
    <glyph glyph-name="Mu" unicode="&#x39c;" horiz-adv-x="847" 
d="M265 722l161 -554l154 554h217v-24h-91v-674h91v-24h-284v24h92v661l-185 -685h-37l-199 685v-661h99v-24h-248v24h98v674h-91v24h223z" />
    <glyph glyph-name="Nu" unicode="&#x39d;" horiz-adv-x="748" 
d="M215 722l334 -553v529h-97v24h246v-24c-66 0 -98 -18 -98 -152v-546h-40l-375 611v-587h98v-24h-246v24h97v674h-98v24h179z" />
    <glyph glyph-name="Xi" unicode="&#x39e;" horiz-adv-x="671" 
d="M319 698c-116 0 -155 -14 -183 -216h-41l11 240h467l11 -240h-41c-28 202 -82 216 -198 216h-26zM294 353v-138h-44v285h44v-127h91v127h44v-285h-44v138h-91zM96 0l-17 252h42c28 -169 68 -228 194 -228h49c126 0 166 59 194 228h42l-17 -252h-487z" />
    <glyph glyph-name="Omicron" unicode="&#x39f;" horiz-adv-x="706" 
d="M359 737c164 0 291 -164 291 -376c0 -214 -127 -376 -294 -376s-294 162 -294 375c0 178 98 377 297 377zM358 721c-168 0 -178 -252 -178 -358c0 -102 8 -362 176 -362c169 0 176 256 176 360c0 99 -7 360 -174 360z" />
    <glyph glyph-name="Pi" unicode="&#x3a0;" horiz-adv-x="755" 
d="M705 722v-24h-91v-674h91v-24h-283v24h91v674h-283v-674h91v-24h-283v24h91v674h-91v24h667z" />
    <glyph glyph-name="Rho" unicode="&#x3a1;" horiz-adv-x="591" 
d="M337 722c195 0 232 -114 232 -190s-35 -135 -96 -169c-34 -19 -73 -28 -151 -28h-92v-311h98v-24h-290v24h91v674h-91v24h299zM230 356h99c87 0 129 56 129 172c0 120 -40 170 -126 170h-54c-44 0 -48 -2 -48 -63v-279z" />
    <glyph glyph-name="Sigma" unicode="&#x3a3;" horiz-adv-x="669" 
d="M57 58l228 312l-229 328v24h515l11 -240h-41c-28 202 -82 216 -198 216h-230l262 -374l-213 -299l200 -1h2c124 0 164 60 192 228h42l-17 -252h-525z" />
    <glyph glyph-name="Tau" unicode="&#x3a4;" horiz-adv-x="578" 
d="M184 703c-56 0 -116 -44 -141 -244h-41l12 263h512l14 -263h-42c-18 147 -56 244 -140 244c-25 0 -36 -17 -36 -54v-625h96v-24h-295v24h97v625c0 37 -10 54 -36 54z" />
    <glyph glyph-name="Upsilon" unicode="&#x3a5;" horiz-adv-x="645" 
d="M318 341l155 357h-125v24h247v-23h-10c-69 0 -96 -74 -114 -116l-126 -281v-278h97v-24h-296v24h98v265l-210 409h-59v24h276v-23h-52c-23 0 -30 -15 -30 -32c0 -14 3 -30 8 -40z" />
    <glyph glyph-name="Phi" unicode="&#x3a6;" horiz-adv-x="815" 
d="M460 193v-169h91v-24h-283v24h91v169c-30 -34 -67 -48 -119 -48c-109 0 -184 83 -184 205c0 127 82 219 195 219c45 0 83 -14 108 -35v164h-91v24h283v-24h-91v-164c25 21 63 35 108 35c113 0 195 -92 195 -219c0 -122 -75 -205 -184 -205c-52 0 -89 14 -119 48zM460 499
v-243c25 -62 56 -86 99 -86c68 0 109 73 109 189c0 119 -39 200 -105 200h-1c-53 -1 -101 -41 -102 -60zM359 499c0 21 -49 60 -100 60h-2c-65 -1 -106 -80 -106 -200c0 -116 41 -189 109 -189c43 0 74 25 99 86v243z" />
    <glyph glyph-name="Chi" unicode="&#x3a7;" horiz-adv-x="663" 
d="M366 402l198 -378h79v-24h-283v24h26c38 1 53 15 53 36c0 11 -3 24 -10 37l-122 225l-164 -298h130v-24h-246v24h5c43 0 75 27 109 87l136 241l-197 346h-53v24h266v-23h-35c-29 0 -37 -7 -37 -27c0 -5 3 -16 9 -26l109 -215l135 267h-104v24h238v-23h-16
c-44 0 -77 -19 -120 -100z" />
    <glyph glyph-name="Psi" unicode="&#x3a8;" horiz-adv-x="628" 
d="M251 316c-89 14 -177 69 -177 139v254h-72v15h158v-256c0 -47 42 -99 91 -119v354h84v-354c49 20 85 72 85 119v256h158v-15h-72v-254c0 -72 -81 -127 -171 -140v-300h75v-15h-230v15h71v301z" />
    <glyph glyph-name="Omega" unicode="&#x3a9;" horiz-adv-x="796" 
d="M588 69c36 0 77 10 105 179h42l-26 -248h-240l-6 19c43 83 129 228 129 373c0 213 -94 313 -193 313c-105 0 -190 -99 -190 -316c0 -140 74 -275 127 -370l-8 -19h-240l-17 252h42c28 -169 66 -183 102 -183h61c-64 55 -169 167 -169 327c0 195 129 340 295 340
c168 0 290 -138 290 -332c0 -143 -97 -262 -172 -335h68z" />
    <glyph glyph-name="Iotadieresis" unicode="&#x3aa;" horiz-adv-x="309" 
d="M205 698v-674h91v-24h-283v24h91v674h-91v24h283v-24h-91zM72 897c24 0 44 -24 44 -50c0 -28 -20 -50 -46 -50c-22 0 -44 23 -44 50c0 26 22 50 46 50zM238 897c24 0 44 -24 44 -50c0 -28 -20 -50 -46 -50c-24 0 -44 23 -44 50c0 26 20 50 46 50z" />
    <glyph glyph-name="Upsilondieresis" unicode="&#x3ab;" horiz-adv-x="618" 
d="M342 341l155 357h-125v24h247v-23h-10c-69 0 -96 -74 -114 -116l-126 -281v-278h97v-24h-296v24h98v265l-210 409h-59v24h276v-23h-52c-23 0 -30 -15 -30 -32c0 -14 3 -30 8 -40zM226 897c24 0 45 -24 45 -50c0 -28 -21 -50 -46 -50c-23 0 -44 23 -44 50
c0 26 21 50 45 50zM392 897c24 0 45 -24 45 -50c0 -28 -21 -50 -46 -50c-24 0 -44 23 -44 50c0 26 20 50 45 50z" />
    <glyph glyph-name="alphatonos" unicode="&#x3ac;" horiz-adv-x="502" 
d="M464 400c-27 -57 -57 -129 -64 -206v-7c0 -73 10 -117 26 -172h73v-15h-139c-10 15 -15 40 -18 64c-27 -53 -64 -76 -120 -76c-104 0 -179 96 -179 215c0 120 77 209 179 209c50 0 116 -20 140 -102l22 89zM239 393c-40 0 -101 -32 -101 -202c0 -108 38 -182 100 -182
s102 83 102 196c0 151 -60 188 -101 188zM222 473l34 168l64 -1l-52 -168z" />
    <glyph glyph-name="epsilontonos" unicode="&#x3ad;" horiz-adv-x="409" 
d="M244 402c-71 0 -92 -63 -92 -106c0 -48 21 -80 67 -80h58v-37h-55c-48 0 -71 -28 -72 -74v-2c0 -49 41 -70 83 -70c65 0 99 18 136 75l13 -8c-24 -43 -56 -111 -156 -111c-88 0 -159 43 -160 109v2c0 48 29 80 79 97c-39 20 -64 37 -64 100c0 65 81 115 155 115h2
c79 0 138 -42 138 -94c0 -29 -23 -48 -54 -48s-54 15 -54 36c0 29 22 25 22 54c0 24 -22 42 -46 42zM175 473l34 168l64 -1l-52 -168z" />
    <glyph glyph-name="etatonos" unicode="&#x3ae;" horiz-adv-x="533" 
d="M371 -200v449c0 44 -21 137 -80 137c-97 0 -113 -123 -113 -190v-181h73v-15h-228v15h70v370h-70v15h155v-63c38 50 82 75 139 75c96 -1 141 -74 141 -168v-444h-87zM192 473l34 168l64 -1l-52 -168z" />
    <glyph glyph-name="iotatonos" unicode="&#x3af;" horiz-adv-x="263" 
d="M246 0c-124 0 -148 44 -148 148l1 237h-82v15h167v-271c0 -67 16 -113 74 -114v-15h-12zM88 473l34 168l64 -1l-52 -168z" />
    <glyph glyph-name="upsilondieresistonos" unicode="&#x3b0;" horiz-adv-x="448" 
d="M416 204c0 -27 -27 -94 -52 -134c-39 -57 -79 -82 -137 -82c-105 0 -140 50 -140 132v265h-72v15h158v-267c0 -60 6 -117 74 -117c47 0 117 34 117 188v181h-86v15h138v-196zM132 572c24 0 46 -24 46 -50c0 -28 -22 -50 -46 -50s-44 23 -44 50c0 26 20 50 44 50zM298 572
c24 0 46 -24 46 -50c0 -28 -22 -50 -46 -50s-44 23 -44 50c0 26 20 50 44 50zM184 497l34 168l64 -1l-52 -168z" />
    <glyph glyph-name="alpha" unicode="&#x3b1;" horiz-adv-x="533" 
d="M466 400c-27 -57 -57 -129 -64 -206v-7c0 -73 10 -117 26 -172h73v-15h-139c-10 15 -15 40 -18 64c-27 -53 -64 -76 -120 -76c-104 0 -179 96 -179 215c0 120 77 209 179 209c50 0 116 -20 140 -102l22 89zM241 393c-40 0 -101 -32 -101 -202c0 -108 38 -182 100 -182
s102 83 102 196c0 151 -60 188 -101 188z" />
    <glyph glyph-name="beta" unicode="&#x3b2;" horiz-adv-x="574" 
d="M265 419c11 0 23 -13 32 -15c10 -2 18 -4 23 -4c26 0 52 92 52 145c0 80 -40 170 -103 170c-59 0 -97 -71 -97 -141v-475c34 -39 82 -91 132 -91c74 0 109 88 111 188v3c0 53 -28 112 -72 153c-6 6 -13 8 -26 8c-23 -11 -39 -15 -51 -15c-17 0 -24 10 -24 23
c0 18 12 41 23 51zM88 -185v749c0 95 81 166 189 166c107 0 191 -84 191 -173c0 -57 -36 -127 -112 -168c56 -3 163 -78 163 -185c0 -129 -77 -217 -196 -217c-58 0 -98 13 -151 53v-225h80v-15h-235v15h71z" />
    <glyph glyph-name="gamma" unicode="&#x3b3;" horiz-adv-x="546" 
d="M40 237c1 57 0 175 106 175c67 0 151 -102 170 -312l102 285h-78v15h174v-10h-8c-31 0 -46 -19 -68 -76l-95 -248v-251h75v-15h-230v15h71v239c-3 22 -41 280 -125 280c-41 0 -65 -40 -71 -97h-23z" />
    <glyph glyph-name="delta" unicode="&#x3b4;" horiz-adv-x="493" 
d="M253 402c-65 0 -98 -68 -98 -202c0 -131 34 -202 96 -202c61 0 97 69 97 197v5c-1 152 -64 202 -95 202zM148 591v-5c0 -55 38 -117 104 -150c46 -24 186 -54 190 -237v-5c0 -115 -87 -206 -191 -206c-107 0 -191 94 -191 211c0 102 73 192 158 214
c-60 31 -118 95 -120 173c2 75 55 148 191 148c45 0 79 -23 79 -53c0 -24 -22 -41 -53 -41c-26 0 -47 11 -47 26c0 8 6 21 6 30c0 14 -4 23 -10 23c-73 0 -116 -77 -116 -128z" />
    <glyph glyph-name="epsilon" unicode="&#x3b5;" horiz-adv-x="433" 
d="M236 402c-71 0 -92 -63 -92 -106c0 -48 21 -80 67 -80h58v-37h-55c-48 0 -71 -28 -72 -74v-2c0 -49 41 -70 83 -70c65 0 99 18 136 75l13 -8c-24 -43 -56 -111 -156 -111c-88 0 -159 43 -160 109v2c0 48 29 80 79 97c-39 20 -64 37 -64 100c0 65 81 115 155 115h2
c79 0 138 -42 138 -94c0 -29 -23 -48 -54 -48s-54 15 -54 36c0 29 22 25 22 54c0 24 -22 42 -46 42z" />
    <glyph glyph-name="zeta" unicode="&#x3b6;" horiz-adv-x="470" 
d="M266 46c38 -18 130 -58 130 -140c0 -68 -83 -106 -170 -106c-45 0 -79 23 -79 53c0 24 22 41 53 41c26 0 47 -11 47 -26c0 -8 -6 -21 -6 -30c0 -14 4 -23 10 -23c53 1 91 53 91 89v1c0 45 -44 77 -88 100c-46 21 -192 98 -192 232c0 123 52 260 134 351
c-48 14 -69 36 -69 73c0 41 39 77 84 77l3 -14c-31 -9 -33 -27 -33 -46v-7c0 -26 21 -45 53 -46c63 57 105 80 142 80c28 0 44 -11 44 -30c0 -23 -22 -48 -56 -65c-27 -14 -46 -20 -96 -22c-66 -57 -130 -249 -130 -352c0 -101 89 -171 128 -190z" />
    <glyph glyph-name="eta" unicode="&#x3b7;" horiz-adv-x="557" 
d="M399 -200v449c0 44 -21 137 -80 137c-97 0 -113 -123 -113 -190v-181h73v-15h-228v15h70v370h-70v15h155v-63c38 50 82 75 139 75c96 -1 141 -74 141 -168v-444h-87z" />
    <glyph glyph-name="theta" unicode="&#x3b8;" horiz-adv-x="567" 
d="M292 704c118 0 217 -148 217 -365c0 -208 -105 -351 -224 -351c-115 0 -220 148 -220 354c0 209 108 362 227 362zM165 369h243c-2 277 -82 324 -122 324s-120 -50 -121 -324zM408 321h-242c4 -145 28 -205 48 -251c20 -47 46 -70 73 -70c76 0 116 136 121 321z" />
    <glyph glyph-name="iota" unicode="&#x3b9;" horiz-adv-x="276" 
d="M235 0c-124 0 -148 44 -148 148l1 237h-82v15h167v-271c0 -67 16 -113 74 -114v-15h-12z" />
    <glyph glyph-name="kappa" unicode="&#x3ba;" horiz-adv-x="556" 
d="M195 191l182 194h-114v15h225v-15c-58 -6 -97 -29 -146 -81l-37 -47l120 -183c34 -50 51 -55 99 -59v-15h-229v15h75l-125 196l-50 -56v-140h65v-15h-216v15h66v370h-77v15h162v-209z" />
    <glyph glyph-name="lambda" unicode="&#x3bb;" horiz-adv-x="632" 
d="M332 346c56 -132 117 -281 159 -281c52 0 66 42 77 83h21c-3 -61 -28 -162 -110 -162c-37 0 -68 28 -87 79c-9 26 -80 193 -88 235l-89 -234c-3 -7 -5 -16 -5 -22c0 -17 11 -29 36 -29h19v-15h-206v15h52l152 376l-63 165c-32 70 -55 165 -81 165c-6 0 -10 -9 -10 -23
c0 -9 6 -22 6 -30c0 -15 -21 -26 -47 -26c-31 0 -53 17 -53 41c0 30 34 53 79 53c106 0 160 -188 238 -390z" />
    <glyph glyph-name="mu" unicode="&#x3bc;" horiz-adv-x="555" 
d="M352 0v88c-36 -66 -75 -94 -128 -94c-42 0 -73 18 -98 55c0 -47 28 -190 28 -207c0 -36 -18 -61 -44 -61c-27 0 -46 24 -46 59c0 23 25 151 25 174v367l-68 -1v20h153v-239c0 -50 0 -137 69 -137c27 0 109 36 109 130v226h-80v20h163v-380h75v-20h-158z" />
    <glyph glyph-name="nu" unicode="&#x3bd;" horiz-adv-x="469" 
d="M338 399l99 1v-15h-6c-31 0 -58 -30 -59 -84v-5c0 -69 -44 -232 -138 -308h-32l-160 397h-49v15h204v-15h-14c-27 0 -43 0 -43 -23c0 -8 0 -17 5 -30l102 -278c59 72 91 180 91 241v104z" />
    <glyph glyph-name="xi" unicode="&#x3be;" horiz-adv-x="468" 
d="M322 -96v3c0 33 -19 81 -69 81c-109 0 -184 83 -184 205c0 99 50 177 126 206c-31 11 -74 67 -74 108v7c0 33 13 58 37 82c-48 14 -69 36 -69 73c0 41 39 77 84 77l1 -14c-28 -8 -31 -24 -31 -41v-12c0 -26 21 -45 53 -46c63 57 105 80 142 80c28 0 44 -11 44 -30
c0 -23 -22 -48 -56 -65c-27 -14 -52 -24 -102 -26c-37 -28 -58 -57 -58 -88c5 -38 26 -78 57 -96c13 3 27 4 41 4c79 0 138 -42 138 -94c0 -29 -23 -48 -54 -48s-54 15 -54 36c0 29 22 25 22 54c0 24 -22 42 -46 42c-50 0 -106 -86 -106 -200c0 -116 41 -188 109 -189
c77 -1 103 -55 103 -107c-4 -63 -83 -106 -170 -106c-45 0 -79 23 -79 53c0 24 22 41 53 41c26 0 47 -11 47 -26c0 -8 -6 -21 -6 -30c0 -14 4 -23 10 -23c53 1 91 53 91 89z" />
    <glyph glyph-name="omicron" unicode="&#x3bf;" horiz-adv-x="469" 
d="M236 412c104 0 189 -96 189 -213s-85 -211 -191 -211c-107 0 -191 94 -191 211c0 120 84 213 193 213zM236 402c-65 0 -98 -68 -98 -202c0 -131 34 -202 96 -202s97 71 97 202s-35 202 -95 202z" />
    <glyph glyph-name="pi" unicode="&#x3c0;" horiz-adv-x="608" 
d="M447 340v-209c0 -68 18 -115 77 -116v-15h-12c-124 0 -152 44 -152 148v192h-150v-23c0 -230 -40 -294 -55 -312c-18 -8 -44 -16 -60 -17l-6 17c74 93 82 229 82 332c-66 0 -92 -19 -129 -46l-11 8c30 35 66 101 169 101h267c47 1 74 44 90 72l13 -8l-55 -124h-68z" />
    <glyph glyph-name="rho" unicode="&#x3c1;" horiz-adv-x="495" 
d="M272 412c100 0 177 -90 177 -204c0 -120 -77 -220 -182 -220c-52 0 -87 21 -115 71v-244h80v-15h-235v15h71v391c1 166 103 206 204 206zM259 393c-57 0 -106 -118 -106 -205c0 -98 41 -181 103 -181s97 80 97 205c0 114 -34 181 -94 181z" />
    <glyph glyph-name="sigma1" unicode="&#x3c2;" horiz-adv-x="430" 
d="M301 -96v3c0 33 -19 81 -69 81c-109 0 -184 83 -184 205c0 127 82 219 195 219c79 0 138 -42 138 -94c0 -29 -23 -48 -54 -48s-54 15 -54 36c0 29 22 25 22 54c0 24 -22 42 -46 42c-65 0 -106 -80 -106 -200c0 -116 41 -188 109 -189c77 -1 103 -55 103 -107
c-4 -63 -83 -106 -170 -106c-45 0 -79 23 -79 53c0 24 22 41 53 41c26 0 47 -11 47 -26c0 -8 -6 -21 -6 -30c0 -14 4 -23 10 -23c53 1 91 53 91 89z" />
    <glyph glyph-name="sigma" unicode="&#x3c3;" horiz-adv-x="476" 
d="M236 402c-65 0 -98 -68 -98 -202c0 -131 34 -202 96 -202s97 71 97 202s-35 202 -95 202zM335 380c54 -38 90 -105 90 -181c0 -117 -85 -211 -191 -211c-107 0 -191 94 -191 211c0 120 84 213 193 213c21 0 41 -4 60 -11h130v-21h-91z" />
    <glyph glyph-name="tau" unicode="&#x3c4;" horiz-adv-x="298" 
d="M235 0c-124 0 -148 44 -148 148v237h-81v15h260v-15h-93v-256c0 -67 16 -113 74 -114v-15h-12z" />
    <glyph glyph-name="upsilon" unicode="&#x3c5;" horiz-adv-x="461" 
d="M411 204c0 -27 -27 -94 -52 -134c-39 -57 -79 -82 -137 -82c-105 0 -140 50 -140 132v265h-72v15h158v-267c0 -60 6 -117 74 -117c47 0 117 34 117 188v181h-86v15h138v-196z" />
    <glyph glyph-name="phi" unicode="&#x3c6;" horiz-adv-x="474" 
d="M217 411v189h46v-190c93 -12 166 -103 166 -211s-72 -196 -166 -209v-190h-46v189c-97 12 -170 101 -170 210c0 111 72 200 170 212zM217 1v398c-50 -15 -75 -82 -75 -199c0 -115 26 -184 75 -199zM263 398v-396c46 18 72 86 72 198c0 113 -26 182 -72 198z" />
    <glyph glyph-name="chi" unicode="&#x3c7;" horiz-adv-x="597" 
d="M373 0c42 -88 67 -119 109 -119c52 0 66 42 77 83h21c-3 -61 -28 -162 -110 -162c-37 0 -62 31 -87 79c-8 15 -45 97 -85 187l-137 -241h130v-24h-246v24h5c43 0 74 28 109 87l119 200l-85 191c-16 25 -38 36 -60 36c-33 0 -60 -30 -66 -84h-25c9 100 47 155 101 155
c44 0 69 -37 92 -91l70 -162l126 217h-104v24h238v-23h-16c-44 0 -73 -21 -120 -100l-104 -164z" />
    <glyph glyph-name="psi" unicode="&#x3c8;" horiz-adv-x="561" 
d="M316 -9v-176h75v-15h-230v15h71v177c-84 14 -152 69 -152 139v254h-72v15h158v-256c0 -46 25 -96 66 -118v353l84 1v-354c38 22 55 72 55 118v256h158v-15h-72v-254c0 -71 -57 -127 -141 -140z" />
    <glyph glyph-name="omega" unicode="&#x3c9;" horiz-adv-x="748" 
d="M398 101c25 -59 57 -88 99 -88c68 0 109 73 109 189c0 120 -41 200 -106 200l6 10c94 0 195 -92 195 -219c0 -122 -75 -205 -184 -205c-67 0 -109 24 -143 82c-35 -58 -77 -82 -144 -82c-109 0 -184 83 -184 205c0 127 82 219 195 219l6 -10c-65 0 -106 -80 -106 -200
c0 -116 41 -189 109 -189c45 0 76 21 102 88c-19 52 -28 85 -28 126c0 62 23 95 53 95c31 0 54 -33 54 -95c0 -44 -12 -67 -33 -126z" />
    <glyph glyph-name="iotadieresis" unicode="&#x3ca;" horiz-adv-x="263" 
d="M246 0c-124 0 -148 44 -148 148l1 237h-82v15h167v-271c0 -67 16 -113 74 -114v-15h-12zM54 572c24 0 46 -24 46 -50c0 -28 -22 -50 -46 -50s-44 23 -44 50c0 26 20 50 44 50zM220 572c24 0 46 -24 46 -50c0 -28 -22 -50 -46 -50s-44 23 -44 50c0 26 20 50 44 50z" />
    <glyph glyph-name="upsilondieresis" unicode="&#x3cb;" horiz-adv-x="448" 
d="M416 204c0 -27 -27 -94 -52 -134c-39 -57 -79 -82 -137 -82c-105 0 -140 50 -140 132v265h-72v15h158v-267c0 -60 6 -117 74 -117c47 0 117 34 117 188v181h-86v15h138v-196zM132 572c24 0 46 -24 46 -50c0 -28 -22 -50 -46 -50s-44 23 -44 50c0 26 20 50 44 50zM298 572
c24 0 46 -24 46 -50c0 -28 -22 -50 -46 -50s-44 23 -44 50c0 26 20 50 44 50z" />
    <glyph glyph-name="omicrontonos" unicode="&#x3cc;" horiz-adv-x="462" 
d="M235 412c104 0 189 -96 189 -213s-85 -211 -191 -211c-107 0 -191 94 -191 211c0 120 84 213 193 213zM235 402c-65 0 -98 -68 -98 -202c0 -131 34 -202 96 -202s97 71 97 202s-35 202 -95 202zM184 473l34 168l64 -1l-52 -168z" />
    <glyph glyph-name="upsilontonos" unicode="&#x3cd;" horiz-adv-x="448" 
d="M416 204c0 -27 -27 -94 -52 -134c-39 -57 -79 -82 -137 -82c-105 0 -140 50 -140 132v265h-72v15h158v-267c0 -60 6 -117 74 -117c47 0 117 34 117 188v181h-86v15h138v-196zM166 473l34 168l64 -1l-52 -168z" />
    <glyph glyph-name="omegatonos" unicode="&#x3ce;" horiz-adv-x="728" 
d="M395 101c25 -59 57 -88 99 -88c68 0 109 73 109 189c0 120 -41 200 -106 200l6 10c94 0 195 -92 195 -219c0 -122 -75 -205 -184 -205c-67 0 -109 24 -144 82c-34 -58 -76 -82 -143 -82c-109 0 -184 83 -184 205c0 127 82 219 195 219l6 -10c-65 0 -106 -80 -106 -200
c0 -116 41 -189 109 -189c45 0 76 21 102 88c-19 52 -28 85 -28 126c0 62 23 95 53 95c31 0 54 -33 54 -95c0 -44 -12 -67 -33 -126zM322 473l34 168l64 -1l-52 -168z" />
    <glyph glyph-name="uni03CF" unicode="&#x3cf;" horiz-adv-x="667" 
d="M630 -70c-3 -54 -88 -130 -175 -130c-45 0 -79 23 -79 53c0 24 22 41 53 41c26 0 47 -11 47 -26c0 -8 -6 -21 -6 -30c0 -14 4 -23 10 -23c54 1 70 59 70 87c-2 28 -26 64 -55 122l-194 360l-97 -131v-229h93v-24h-284v24h91v674h-91v24h284v-24h-93v-387l305 387h-136v24
h266v-23c-50 0 -102 -32 -143 -85l-126 -164l205 -370c28 -62 55 -114 55 -147v-3z" />
    <glyph glyph-name="uni03D0" unicode="&#x3d0;" horiz-adv-x="544" 
d="M276 -13c-164 1 -240 196 -240 311c0 375 166 436 253 437h4c104 0 156 -54 156 -142c0 -57 -35 -146 -111 -187c96 -22 169 -95 169 -202c0 -125 -107 -217 -229 -217h-2zM403 196c-1 94 -54 186 -151 186c-48 0 -104 -20 -150 -34v-14c0 -152 130 -324 194 -324
c67 0 107 90 107 183v3zM104 376c51 16 255 70 259 213v3c0 53 -38 128 -84 128h-1c-139 -2 -174 -258 -174 -344z" />
    <glyph glyph-name="theta1" unicode="&#x3d1;" horiz-adv-x="548" 
d="M361 427c-9 79 -26 272 -128 272c-36 0 -62 -29 -62 -69c0 -76 77 -160 190 -203zM442 232v-3c0 -128 -91 -241 -215 -241c-105 0 -140 50 -140 132v265h-72v15h158v-267c0 -60 6 -117 74 -117c47 0 117 34 117 188v167c-144 60 -227 153 -227 247c0 68 45 117 106 117
c43 0 85 -25 121 -72c47 -62 62 -114 75 -261c8 -2 54 -16 75 -23l2 -72c-20 8 -45 19 -75 32z" />
    <glyph glyph-name="Upsilon1" unicode="&#x3d2;" horiz-adv-x="587" 
d="M257 576v-18c30 106 118 178 232 178c48 0 78 -23 78 -55c0 -26 -22 -44 -55 -44c-28 0 -49 14 -49 33s3 29 15 44c-141 0 -221 -228 -221 -325v-374h86v-15h-240v15h70l-2 550c0 79 -42 117 -64 117c-33 0 -56 -48 -62 -102h-25c9 100 65 155 119 155
c44 0 118 -45 118 -159z" />
    <glyph glyph-name="uni03D3" unicode="&#x3d3;" horiz-adv-x="587" 
d="M257 576v-18c30 106 118 178 232 178c48 0 78 -23 78 -55c0 -26 -22 -44 -55 -44c-28 0 -49 14 -49 33s3 29 15 44c-141 0 -221 -228 -221 -325v-374h86v-15h-240v15h70l-2 550c0 79 -42 117 -64 117c-33 0 -56 -48 -62 -102h-25c9 100 65 155 119 155
c44 0 118 -45 118 -159zM-70 570l34 168l64 -1l-52 -168z" />
    <glyph glyph-name="uni03D4" unicode="&#x3d4;" horiz-adv-x="587" 
d="M257 576v-18c30 106 118 178 232 178c48 0 78 -23 78 -55c0 -26 -22 -44 -55 -44c-28 0 -49 14 -49 33s3 29 15 44c-141 0 -221 -228 -221 -325v-374h86v-15h-240v15h70l-2 550c0 79 -42 117 -64 117c-33 0 -56 -48 -62 -102h-25c9 100 65 155 119 155
c44 0 118 -45 118 -159zM210 897c24 0 46 -24 46 -50c0 -28 -22 -50 -46 -50s-44 23 -44 50c0 26 20 50 44 50zM376 897c24 0 46 -24 46 -50c0 -28 -22 -50 -46 -50s-44 23 -44 50c0 26 20 50 44 50z" />
    <glyph glyph-name="phi1" unicode="&#x3d5;" horiz-adv-x="462" 
d="M258 1c60 14 101 83 101 199s-57 199 -101 199v-398zM258 -11v-189h-46v189c-118 9 -208 99 -208 210c0 106 79 192 188 210l2 -14c-54 -21 -86 -87 -86 -195c0 -118 42 -188 104 -200v412h46c103 0 204 -103 204 -213c0 -109 -89 -198 -204 -210z" />
    <glyph glyph-name="omega1" unicode="&#x3d6;" horiz-adv-x="728" 
d="M135 382h-43l48 30h523l-33 -27h-37c59 -37 105 -106 105 -192c0 -122 -75 -205 -184 -205c-67 0 -109 24 -144 82c-34 -58 -76 -82 -143 -82c-109 0 -184 83 -184 205c0 84 36 152 92 189zM395 101c25 -59 57 -88 99 -88c68 0 109 73 109 189c0 87 -21 153 -58 183
l-351 -2c-35 -31 -56 -96 -56 -181c0 -116 41 -189 109 -189c45 0 76 21 102 88c-19 52 -28 85 -28 126c0 62 23 95 53 95c31 0 54 -33 54 -95c0 -44 -12 -67 -33 -126z" />
    <glyph glyph-name="uni03D7" unicode="&#x3d7;" horiz-adv-x="531" 
d="M424 327v-187c0 -139 107 -135 107 -232v-1c-1 -63 -83 -106 -170 -106c-45 0 -79 23 -79 53c0 24 22 41 53 41c26 0 47 -11 47 -26c0 -8 -6 -21 -6 -30c0 -14 4 -23 10 -23c54 1 91 54 91 90v1c0 122 -140 57 -140 241v92l-256 -254h-52l76 75v220c0 68 -18 115 -77 116
v15h12c124 0 152 -44 152 -148v-116l254 252h52z" />
    <glyph glyph-name="uni03D8" unicode="&#x3d8;" horiz-adv-x="653" 
d="M328 724c-168 0 -178 -189 -178 -269c0 -76 8 -271 176 -271c170 0 176 192 176 270c0 74 -6 270 -174 270zM368 174v-159h76v-15h-230v15h70v159c-145 19 -252 133 -252 279c0 133 98 283 298 283c164 0 290 -123 290 -282c0 -147 -106 -261 -252 -280z" />
    <glyph glyph-name="uni03D9" unicode="&#x3d9;" horiz-adv-x="462" 
d="M273 -7v-178h75v-15h-230v15h71v178c-85 22 -147 106 -147 206c0 120 84 213 193 213c104 0 189 -96 189 -213c0 -102 -64 -186 -151 -206zM235 402c-65 0 -98 -68 -98 -202c0 -131 34 -202 96 -202s97 71 97 202s-35 202 -95 202z" />
    <glyph glyph-name="uni03DA" unicode="&#x3da;" horiz-adv-x="462" 
d="M281 15v185c0 33 -30 78 -65 94c-32 20 -184 52 -184 205c0 127 82 219 192 221h153c47 1 74 44 90 72l13 -8l-62 -122h-176c-65 0 -94 -32 -94 -152c0 -116 29 -157 88 -191c64 -37 129 -69 129 -121v-183h75v-15h-230v15h71z" />
    <glyph glyph-name="uni03DB" unicode="&#x3db;" horiz-adv-x="511" 
d="M296 -96v3c0 33 -19 81 -69 81c-109 0 -184 83 -184 205c0 127 82 219 192 221h153c47 1 74 44 90 72l13 -8l-57 -94h-176c-65 0 -120 -62 -120 -182c0 -116 41 -188 109 -189c77 -1 103 -55 103 -107c-4 -63 -83 -106 -170 -106c-45 0 -79 23 -79 53c0 24 22 41 53 41
c26 0 47 -11 47 -26c0 -8 -6 -21 -6 -30c0 -14 4 -23 10 -23c53 1 91 53 91 89z" />
    <glyph glyph-name="uni03DC" unicode="&#x3dc;" horiz-adv-x="555" 
d="M522 722l12 -240h-42c-24 178 -60 219 -198 219h-38c-43 0 -52 -10 -52 -66v-262h136v143h44v-315h-44v152h-136v-329h105v-24h-296v24h91v674h-91v24h509z" />
    <glyph glyph-name="uni03DD" unicode="&#x3dd;" horiz-adv-x="291" 
d="M97 -185v743c0 69 18 172 171 172c72 0 115 -25 115 -65c0 -23 -20 -37 -50 -37c-28 0 -49 13 -49 30s12 19 12 38c0 18 -9 27 -26 27c-35 0 -88 -22 -88 -148v-175h98v-17h-98v-583h-156v15h71z" />
    <glyph glyph-name="uni03DE" unicode="&#x3de;" horiz-adv-x="411" 
d="M86 161v224h-71v15h230v-15h-75v-184l151 39v-225h75v-15h-230v15h71v185z" />
    <glyph glyph-name="uni03DF" unicode="&#x3df;" horiz-adv-x="577" 
d="M170 736c100 0 143 -133 143 -244c0 -123 -140 -350 -189 -438l325 358h76c-52 -180 -132 -363 -132 -430c0 -167 49 -174 95 -174h13c18 0 29 9 44 27l12 -20c-23 -42 -61 -65 -95 -65c-100 0 -151 63 -151 174c0 102 103 317 132 424l-329 -362h-94s213 357 213 482
c0 183 -53 210 -102 210c-18 0 -29 -9 -44 -27l-12 20c23 42 61 65 95 65z" />
    <glyph glyph-name="uni03E4" unicode="&#x3e4;" horiz-adv-x="563" 
d="M352 722h192v-24h-91v-674h91v-24h-290v24h98v311h-92c-78 0 -117 9 -151 28c-61 34 -96 93 -96 169s37 190 232 190l-1 -24c-56 0 -120 -44 -120 -170c0 -116 42 -172 129 -172h99v366z" />
    <glyph glyph-name="uni03E5" unicode="&#x3e5;" horiz-adv-x="509" 
d="M206 412v-19c-60 0 -94 -67 -94 -181c0 -125 35 -205 97 -205s103 83 103 181c0 76 1 212 1 212h155v-16h-71v-569h71v-15h-235v15h80v244c-28 -50 -63 -71 -115 -71c-105 0 -182 100 -182 220c0 114 90 204 190 204z" />
    <glyph glyph-name="uni03E6" unicode="&#x3e6;" horiz-adv-x="597" 
d="M251 -198l172 539c4 9 6 21 6 33c0 45 -29 102 -86 102h-1c-123 0 -178 -207 -178 -273v-188h73v-15h-228v15h70v700h-82v15h167v-400c20 52 73 170 205 170c94 0 151 -51 151 -115c0 -16 -3 -32 -10 -49l-172 -534h-87z" />
    <glyph glyph-name="uni03E7" unicode="&#x3e7;" horiz-adv-x="503" 
d="M270 261c-21 29 -79 116 -134 116c-24 0 -62 -22 -62 -58c0 -38 46 -81 98 -81c27 0 54 3 98 23zM318 8h1c31 0 52 35 52 85c0 34 -70 133 -70 133c-55 -22 -86 -26 -120 -26c-73 0 -134 65 -134 120c0 40 32 93 114 93c87 0 113 -51 175 -116c55 27 83 62 84 113
c1 1 2 1 4 1s6 -1 9 -1c2 0 3 0 4 1c-5 -63 -33 -120 -74 -149c39 -54 73 -105 73 -164c-1 -60 -45 -110 -121 -110c-82 0 -153 73 -190 75c-31 0 -77 -45 -88 -69c0 18 22 108 98 108c70 0 136 -94 183 -94z" />
    <glyph glyph-name="uni03E8" unicode="&#x3e8;" horiz-adv-x="540" 
d="M124 118c158 244 236 256 238 402v4c0 96 -52 169 -119 169c-90 0 -113 -98 -113 -124c0 -52 63 -41 63 -90c0 -28 -23 -47 -55 -47c-42 0 -71 38 -71 94c0 100 84 178 192 178c112 0 193 -78 194 -186v-2c0 -141 -116 -213 -271 -442c-25 -39 -35 -74 -35 -104
c0 -116 146 -167 175 -170c-59 5 -238 53 -238 192c0 36 11 78 40 126z" />
    <glyph glyph-name="uni03E9" unicode="&#x3e9;" horiz-adv-x="540" 
d="M123 -88c0 134 239 151 239 313c0 98 -42 176 -119 176c-90 0 -113 -98 -113 -124c0 -52 63 -41 63 -90c0 -28 -23 -47 -55 -47c-42 0 -71 38 -71 94c0 100 84 178 192 178c112 0 194 -78 194 -187c0 -169 -250 -211 -250 -312c0 -43 39 -82 85 -82c26 0 55 12 80 43
c-30 -52 -74 -73 -117 -73c-66 0 -128 50 -128 111z" />
    <glyph glyph-name="uni03EA" unicode="&#x3ea;" horiz-adv-x="622" 
d="M368 24c38 1 53 15 53 36c0 11 -3 24 -10 37l-122 225l-164 -298h243zM9 0v24h5c43 0 75 27 109 87l136 241l-197 346h-53v24h266v-23h-35c-29 0 -37 -7 -37 -27c0 -5 3 -16 9 -26l109 -215l135 267h-104v24h238v-23h-16c-44 0 -77 -19 -120 -100l-106 -197l198 -378h79
v-24h-616z" />
    <glyph glyph-name="uni03EB" unicode="&#x3eb;" horiz-adv-x="461" 
d="M247 15c31 0 41 10 41 24c0 10 -3 23 -11 35l-57 84l-120 -143h147zM12 0v9h5c24 0 50 19 76 50l103 125l-142 201h-37v15h204v-11h-13c-24 0 -34 -8 -34 -28c0 -8 2 -20 7 -28l63 -95l108 147h-95v15h180v-15h-10c-21 0 -41 -9 -61 -36l-100 -139l141 -195h49v-15h-444z
" />
    <glyph glyph-name="uni03EC" unicode="&#x3ec;" horiz-adv-x="618" 
d="M276 381l-155 -357h125v-24h-247v23h10c69 0 96 74 114 116l126 281v278h-97v24h296v-24h-98v-265l210 -409h59v-24h-276v23h52c23 0 30 15 30 32c0 14 -3 30 -8 40z" />
    <glyph glyph-name="uni03ED" unicode="&#x3ed;" horiz-adv-x="462" 
d="M42 259c0 231 72 359 99 403l40 60h165c47 1 74 44 90 72l13 -8l-55 -124h-209c-53 -98 -69 -222 -71 -295c33 28 75 45 121 45c104 0 189 -96 189 -213s-85 -211 -191 -211s-191 61 -191 264v7zM235 402c-65 0 -98 -68 -98 -202c0 -131 34 -202 96 -202s97 71 97 202
s-35 202 -95 202z" />
    <glyph glyph-name="uni03EE" unicode="&#x3ee;" horiz-adv-x="389" 
d="M144 400v298h-91v24h283v-24h-91v-298h124v-48h-124v-328h91v-24h-283v24h91v328h-124v48h124z" />
    <glyph glyph-name="uni03EF" unicode="&#x3ef;" horiz-adv-x="389" 
d="M72 715v15h164v-330h133v-48h-133v-337h75v-15h-230v15h71v337h-132v48h132v315h-80z" />
    <glyph glyph-name="uni03F0" unicode="&#x3f0;" horiz-adv-x="531" 
d="M105 61v220c0 68 -18 115 -77 116v15h12c124 0 152 -44 152 -148v-116l254 252h52l-74 -73v-196c0 -68 18 -115 77 -116v-15h-12c-124 0 -152 44 -152 148v92l-256 -254h-52z" />
    <glyph glyph-name="uni03F1" unicode="&#x3f1;" horiz-adv-x="462" 
d="M130 -14c0 -86 49 -161 117 -161c45 0 76 26 102 93l38 -5c-38 -81 -82 -113 -160 -113c-109 0 -175 122 -175 168c0 44 10 74 24 98c-17 32 -34 93 -34 133c0 120 84 213 193 213c104 0 189 -96 189 -213s-85 -211 -191 -211c-35 0 -67 10 -95 28c0 -4 -8 -26 -8 -30z
M235 402c-65 0 -98 -68 -98 -202c0 -131 34 -202 96 -202s97 71 97 202s-35 202 -95 202z" />
    <glyph glyph-name="uni03F2" unicode="&#x3f2;" horiz-adv-x="409" 
d="M268 306c0 29 22 25 22 54c0 24 -22 42 -46 42c-65 0 -106 -80 -106 -200c0 -116 41 -189 109 -189c45 0 76 26 102 93l38 -5c-38 -81 -82 -113 -160 -113c-109 0 -184 83 -184 205c0 127 82 219 195 219c79 0 138 -42 138 -94c0 -29 -23 -48 -54 -48s-54 15 -54 36z" />
    <glyph glyph-name="uni03F3" unicode="&#x3f3;" horiz-adv-x="251" 
d="M32 -191c49 0 80 78 80 173v403h-87v15h171v-376c0 -98 -14 -224 -164 -224v9zM155 598c25 0 47 -21 47 -49s-22 -48 -47 -48c-26 0 -48 20 -48 48s22 49 48 49z" />
    <glyph glyph-name="uni03F4" unicode="&#x3f4;" horiz-adv-x="653" 
d="M502 321h-351c3 -118 27 -320 175 -320c150 0 172 202 176 320zM502 369c0 104 -11 352 -174 352c-165 0 -178 -243 -178 -352h352zM329 737c164 0 291 -164 291 -376c0 -214 -127 -376 -294 -376s-294 162 -294 375c0 178 98 377 297 377z" />
    <glyph glyph-name="uni03F5" unicode="&#x3f5;" horiz-adv-x="409" 
d="M268 306c0 29 22 25 22 54c0 24 -22 42 -46 42c-64 0 -104 -76 -106 -192h152v-15h-152c2 -112 42 -182 109 -182c45 0 76 26 102 93l38 -5c-38 -81 -82 -113 -160 -113c-109 0 -184 83 -184 205c0 127 82 219 195 219c79 0 138 -42 138 -94c0 -29 -23 -48 -54 -48
s-54 15 -54 36z" />
    <glyph glyph-name="uni03F6" unicode="&#x3f6;" horiz-adv-x="409" 
d="M162 306c0 -21 -23 -36 -54 -36s-54 19 -54 48c0 52 59 94 138 94c113 0 195 -92 195 -219c0 -122 -75 -205 -184 -205c-78 0 -122 32 -160 113l38 5c26 -67 57 -93 102 -93c67 0 107 70 109 182h-152v15h152c-2 116 -42 192 -106 192c-24 0 -46 -18 -46 -42
c0 -29 22 -25 22 -54z" />
    <glyph glyph-name="uni03F7" unicode="&#x3f7;" horiz-adv-x="559" 
d="M258 567c234 0 285 -112 285 -187c0 -78 -44 -196 -293 -196h-45v-98c0 -57 8 -63 72 -63h20v-23h-285v23h20c64 0 73 6 73 64v550c0 55 -9 62 -73 62h-20v23h285v-23h-20c-64 0 -72 -7 -72 -62v-70h53zM432 382c0 161 -88 168 -168 168h-18c-38 0 -41 -5 -41 -70v-277
h36c145 0 191 43 191 179z" />
    <glyph glyph-name="uni03F8" unicode="&#x3f8;" horiz-adv-x="469" 
d="M144 730v-390c29 49 64 70 115 70c95 0 169 -105 169 -210c0 -110 -74 -212 -174 -212c-50 0 -83 20 -110 67v-240h75v-15h-225v15h66v899h-66v16h150zM244 391c-62 0 -99 -87 -99 -197c0 -102 38 -187 96 -187s91 84 91 198c0 104 -32 186 -88 186z" />
    <glyph glyph-name="uni03F9" unicode="&#x3f9;" horiz-adv-x="594" 
d="M540 730l12 -274h-41c-21 87 -64 265 -190 265c-164 0 -171 -285 -171 -371c0 -236 59 -349 181 -349c119 0 160 137 177 236h43l-11 -237h-38v55c-42 -46 -110 -70 -181 -70c-168 0 -289 154 -289 369c0 160 95 383 290 383c62 0 124 -11 182 -83v76h36z" />
    <glyph glyph-name="uni03FC" unicode="&#x3fc;" horiz-adv-x="509" 
d="M278 393c-57 0 -106 -118 -106 -205c0 -98 41 -181 103 -181s97 80 97 205c0 114 -34 181 -94 181zM291 412c100 0 177 -90 177 -204c0 -120 -77 -220 -182 -220c-52 0 -87 21 -115 71v-124h80v-15h-80v-105h80v-15h-235v15h71v105h-70v15h70v271c1 166 103 206 204 206z
" />
    <glyph glyph-name="uni03FD" unicode="&#x3fd;" horiz-adv-x="594" 
d="M44 730h36v-76c58 72 120 83 182 83c195 0 290 -223 290 -383c0 -215 -121 -369 -289 -369c-71 0 -139 24 -181 70v-55h-38l-11 237h43c17 -99 58 -236 177 -236c122 0 181 113 181 349c0 86 -7 371 -171 371c-126 0 -169 -178 -190 -265h-41z" />
    <glyph glyph-name="uni03FE" unicode="&#x3fe;" horiz-adv-x="594" 
d="M327 422c32 0 58 -28 58 -62c0 -35 -26 -63 -59 -63c-31 0 -59 28 -59 63c0 34 28 62 60 62zM540 730l12 -274h-41c-21 87 -64 265 -190 265c-164 0 -171 -285 -171 -371c0 -236 59 -349 181 -349c119 0 160 137 177 236h43l-11 -237h-38v55c-42 -46 -110 -70 -181 -70
c-168 0 -289 154 -289 369c0 160 95 383 290 383c62 0 124 -11 182 -83v76h36z" />
    <glyph glyph-name="uni03FF" unicode="&#x3ff;" horiz-adv-x="594" 
d="M255 422c32 0 58 -28 58 -62c0 -35 -26 -63 -59 -63c-31 0 -59 28 -59 63c0 34 28 62 60 62zM44 730h36v-76c58 72 120 83 182 83c195 0 290 -223 290 -383c0 -215 -121 -369 -289 -369c-71 0 -139 24 -181 70v-55h-38l-11 237h43c17 -99 58 -236 177 -236
c122 0 181 113 181 349c0 86 -7 371 -171 371c-126 0 -169 -178 -190 -265h-41z" />
    <glyph glyph-name="uni0400" unicode="&#x400;" horiz-adv-x="636" 
d="M342 24c126 0 166 59 194 228h42l-17 -252h-525v24h91v674h-91v24h515l11 -240h-41c-28 202 -82 216 -198 216h-44c-43 0 -52 -7 -52 -63v-262h136v127h44v-285h-44v138h-136v-266c0 -47 16 -63 59 -63h56zM400 797h-38l-126 73c-10 6 -22 20 -22 30c0 13 14 23 32 23h3
c12 0 17 -1 41 -21z" />
    <glyph glyph-name="afii10023" unicode="&#x401;" horiz-adv-x="636" 
d="M342 24c126 0 166 59 194 228h42l-17 -252h-525v24h91v674h-91v24h515l11 -240h-41c-28 202 -82 216 -198 216h-44c-43 0 -52 -7 -52 -63v-262h136v127h44v-285h-44v138h-136v-266c0 -47 16 -63 59 -63h56zM224 898c24 0 45 -24 45 -50c0 -28 -21 -51 -46 -51
c-23 0 -44 24 -44 51c0 26 21 50 45 50zM390 898c24 0 45 -24 45 -50c0 -28 -21 -51 -46 -51c-24 0 -44 24 -44 51c0 26 20 50 45 50z" />
    <glyph glyph-name="afii10051" unicode="&#x402;" horiz-adv-x="659" 
d="M505 15v238c0 49 -8 135 -80 135h-1c-70 0 -112 -119 -112 -185v-179h96v-24h-295v24h97v625c0 37 -10 54 -36 54c-56 0 -116 -44 -141 -244h-41l12 263h512l14 -263h-42c-18 147 -56 244 -140 244c-25 0 -36 -17 -36 -54v-319c39 57 82 82 139 82
c117 0 141 -71 141 -164v-233c0 -113 -94 -195 -156 -215c50 52 69 127 69 215z" />
    <glyph glyph-name="afii10052" unicode="&#x403;" horiz-adv-x="607" 
d="M227 635v-611h105v-24h-296v24h91v674h-91v24h509l12 -240h-42c-24 178 -60 219 -198 219h-38c-43 0 -52 -10 -52 -66zM202 797l114 106c24 19 29 20 41 20h3c16 0 32 -11 32 -23c0 -10 -12 -24 -22 -30l-130 -73h-38z" />
    <glyph glyph-name="afii10053" unicode="&#x404;" horiz-adv-x="629" 
d="M556 730l12 -274h-41c-21 87 -64 265 -190 265c-140 0 -166 -209 -170 -323h277v-48h-278c0 -236 59 -349 181 -349c119 0 160 137 177 236h43l-11 -237h-38v55c-42 -46 -110 -70 -181 -70c-168 0 -289 154 -289 369c0 160 95 383 290 383c62 0 124 -11 182 -83v76h36z
" />
    <glyph glyph-name="afii10054" unicode="&#x405;" horiz-adv-x="570" 
d="M322 0c110 0 137 101 137 163c0 133 -93 145 -123 154l-80 25c-125 37 -172 89 -172 193c0 121 76 202 188 202h4c96 0 154 -36 182 -117v102h36l10 -237h-41c-20 96 -76 235 -190 235c-70 0 -116 -57 -116 -140c0 -72 33 -122 108 -145l90 -28c62 -17 177 -43 177 -213
c0 -138 -93 -210 -218 -210c-73 0 -164 38 -204 110l1 -106h-37l-3 273h40c21 -130 84 -261 211 -261z" />
    <glyph glyph-name="afii10055" unicode="&#x406;" horiz-adv-x="369" 
d="M228 698v-674h91v-24h-283v24h91v674h-91v24h283v-24h-91z" />
    <glyph glyph-name="afii10056" unicode="&#x407;" horiz-adv-x="369" 
d="M228 698v-674h91v-24h-283v24h91v674h-91v24h283v-24h-91zM94 898c24 0 46 -24 46 -50c0 -28 -22 -51 -46 -51s-44 24 -44 51c0 26 20 50 44 50zM260 898c24 0 46 -24 46 -50c0 -28 -22 -51 -46 -51s-44 24 -44 51c0 26 20 50 44 50z" />
    <glyph glyph-name="afii10057" unicode="&#x408;" horiz-adv-x="555" 
d="M414 262c0 -169 -30 -277 -193 -277c-138 0 -171 102 -171 160c0 68 37 118 87 118c40 0 68 -28 68 -66c0 -33 -25 -58 -57 -58c-10 0 -17 1 -31 5h-3c-4 0 -6 -15 -6 -33c0 -29 20 -110 98 -110c95 0 107 123 107 262v435h-90v24h282v-24h-91v-436z" />
    <glyph glyph-name="afii10058" unicode="&#x409;" horiz-adv-x="875" 
d="M604 0h-221v24h99l-175 561l-174 -561h116v-24h-229v24h55l237 706h39l242 -706h20c67 0 124 63 127 185v9c0 113 -59 155 -121 157h-108l-11 25h119c129 -1 232 -80 232 -184v-3c0 -76 -35 -151 -96 -185c-34 -19 -73 -28 -151 -28z" />
    <glyph glyph-name="afii10059" unicode="&#x40a;" horiz-adv-x="976" 
d="M610 366v-279c0 -61 4 -63 48 -63h54c86 0 126 50 126 170c0 116 -42 172 -129 172h-99zM717 0h-299v24h91v334h-282v-334h92v-24h-283v24h90v674h-90v24h283v-24h-92v-307h282v307h-91v24h290v-24h-98v-311h92c78 0 117 -9 151 -28c61 -34 96 -93 96 -169
s-37 -190 -232 -190z" />
    <glyph glyph-name="afii10060" unicode="&#x40b;" horiz-adv-x="745" 
d="M194 652c-1 34 -11 51 -37 51c-56 0 -116 -44 -141 -244h-41l12 263h512l14 -263h-42c-18 147 -56 244 -140 244c-25 0 -36 -17 -36 -51v-265h92c78 0 117 -9 151 -28c61 -34 89 -93 89 -169v-166h91v-24h-284v24h93l-1 170c-1 116 -45 172 -132 172h-99v-279
c0 -61 4 -63 48 -63h54l1 -24h-295v24h91v628z" />
    <glyph glyph-name="afii10061" unicode="&#x40c;" horiz-adv-x="727" 
d="M127 24v674h-91v24h284v-24h-93v-296c150 142 306 320 378 320c34 0 54 -20 54 -48v-4c-2 -26 -20 -46 -62 -46h-7c-39 0 -82 -15 -133 -60l-161 -154l302 -330c39 -42 61 -57 80 -57h19v-23h-295v24h116l-291 320v-320h93v-24h-284v24h91zM272 797l114 106
c24 19 29 20 41 20h3c16 0 32 -11 32 -23c0 -10 -12 -24 -22 -30l-130 -73h-38z" />
    <glyph glyph-name="uni040D" unicode="&#x40d;" horiz-adv-x="748" 
d="M506 560l-279 -460v-76h92v-24h-283v24h90v674h-90v24h283v-24h-92v-535l279 459v76h-88v24h280v-24h-91v-674h91v-24h-283v24h91v536zM460 797h-38l-126 73c-10 6 -22 20 -22 30c0 13 14 23 32 23h3c12 0 17 -1 41 -21z" />
    <glyph glyph-name="afii10062" unicode="&#x40e;" horiz-adv-x="693" 
d="M308 170l-241 528h-55v24h268v-24h-36c-36 0 -55 -11 -55 -39c0 -7 1 -24 7 -37l157 -336l168 412h-113v24h235v-24h-12c-45 0 -64 -25 -99 -108l-170 -405c-65 -148 -103 -200 -207 -200h-3c-45 0 -79 23 -79 53c0 24 22 41 53 41c26 0 47 -11 47 -26
c0 -8 -6 -21 -6 -30c0 -14 4 -23 10 -23c54 1 127 95 131 170zM324 797c-124 3 -127 95 -127 103v1c1 21 13 48 38 48h1c26 -1 45 -13 45 -36v-6c-3 -21 -21 -29 -21 -51c0 -18 13 -27 65 -27c49 0 81 11 83 35v3c0 26 -25 28 -25 46v3c3 19 18 30 37 32c36 0 38 -48 38 -48
c-4 -68 -60 -102 -134 -103z" />
    <glyph glyph-name="afii10145" unicode="&#x40f;" horiz-adv-x="775" 
d="M196 0h-141v24h91v674h-91v24h283v-24h-91v-674h283v674h-91v24h283v-24h-91v-674h91v-24h-142c-141 -1 -168 -80 -171 -200h-31c0 118 -40 200 -182 200z" />
    <glyph glyph-name="afii10017" unicode="&#x410;" horiz-adv-x="673" 
d="M351 730l242 -706h58v-24h-268v24h99l-68 219h-216l-65 -219h116v-24h-229v24h55l237 706h39zM307 585l-95 -309h189z" />
    <glyph glyph-name="afii10018" unicode="&#x411;" horiz-adv-x="626" 
d="M36 722h509l12 -240h-42c-24 178 -60 219 -198 219h-38c-42 0 -52 -14 -52 -66v-251h166c118 -4 190 -92 190 -194c0 -119 -89 -190 -238 -190h-309v24h91v674h-91v24zM227 363v-263c0 -70 6 -76 46 -76h36c119 0 163 31 163 169c0 149 -55 170 -173 170h-72z" />
    <glyph glyph-name="afii10019" unicode="&#x412;" horiz-adv-x="619" 
d="M36 722h307c109 0 208 -43 208 -183c0 -77 -77 -142 -137 -161c115 -25 169 -86 169 -188c0 -119 -89 -190 -238 -190h-309v24h91v674h-91v24zM227 384h73c106 0 146 44 146 156c0 114 -35 158 -131 158h-34c-43 0 -54 -11 -54 -63v-251zM227 363v-263
c0 -70 6 -76 46 -76h36c119 0 163 31 163 169c0 149 -55 170 -173 170h-72z" />
    <glyph glyph-name="afii10020" unicode="&#x413;" horiz-adv-x="607" 
d="M227 635v-611h105v-24h-296v24h91v674h-91v24h509l12 -240h-42c-24 178 -60 219 -198 219h-38c-43 0 -52 -10 -52 -66z" />
    <glyph glyph-name="afii10021" unicode="&#x414;" horiz-adv-x="723" 
d="M42 24h55l237 706h39l242 -706h58v-224h-31c-18 128 -57 200 -202 200h-178c-153 0 -171 -72 -189 -200h-32zM504 24l-175 561l-174 -561h349z" />
    <glyph glyph-name="afii10022" unicode="&#x415;" horiz-adv-x="636" 
d="M342 24c126 0 166 59 194 228h42l-17 -252h-525v24h91v674h-91v24h515l11 -240h-41c-28 202 -82 216 -198 216h-44c-43 0 -52 -7 -52 -63v-262h136v127h44v-285h-44v138h-136v-266c0 -47 16 -63 59 -63h56z" />
    <glyph glyph-name="afii10024" unicode="&#x416;" horiz-adv-x="1098" 
d="M498 405v293h-91v24h284v-24h-93v-296c150 142 306 320 378 320c34 0 54 -20 54 -48v-4c-2 -26 -20 -46 -62 -46h-7c-39 0 -82 -15 -133 -60l-161 -154l302 -330c39 -42 61 -57 80 -57h19v-23h-295v24h116l-291 320v-320h93v-24h-284v24h91v323l-291 -323h116v-24h-295
v23h19c17 0 41 23 80 57l302 333l-161 154c-51 45 -94 60 -133 60h-7c-42 0 -60 20 -62 46v4c0 28 20 48 54 48c72 0 228 -178 378 -320z" />
    <glyph glyph-name="afii10025" unicode="&#x417;" horiz-adv-x="572" 
d="M368 398c64 0 166 -98 168 -200v-4c0 -97 -67 -209 -233 -209c-71 0 -139 24 -181 70v-55h-38l-11 237h43c17 -99 58 -236 177 -236c115 0 133 90 133 171v14c-2 86 -106 210 -179 212c95 28 159 82 159 160c-2 92 -50 138 -111 140c-75 -2 -143 -40 -170 -213h-44
l18 237h207c115 0 198 -60 200 -164c-2 -82 -36 -116 -138 -160z" />
    <glyph glyph-name="afii10026" unicode="&#x418;" horiz-adv-x="748" 
d="M506 560l-279 -460v-76h92v-24h-283v24h90v674h-90v24h283v-24h-92v-535l279 459v76h-88v24h280v-24h-91v-674h91v-24h-283v24h91v536z" />
    <glyph glyph-name="afii10027" unicode="&#x419;" horiz-adv-x="748" 
d="M506 560l-279 -460v-76h92v-24h-283v24h90v674h-90v24h283v-24h-92v-535l279 459v76h-88v24h280v-24h-91v-674h91v-24h-283v24h91v536zM364 797c-124 3 -127 95 -127 103v1c1 21 13 48 38 48h1c26 -1 45 -13 45 -37v-5c-3 -21 -21 -29 -21 -51c0 -18 13 -27 65 -27
c49 0 81 11 83 35v3c0 26 -25 28 -25 46v3c3 19 17 30 37 32c36 0 38 -48 38 -48c-4 -68 -60 -102 -134 -103z" />
    <glyph glyph-name="afii10028" unicode="&#x41a;" horiz-adv-x="727" 
d="M127 24v674h-91v24h284v-24h-93v-296c150 142 306 320 378 320c34 0 54 -20 54 -48v-4c-2 -26 -20 -46 -62 -46h-7c-39 0 -82 -15 -133 -60l-161 -154l302 -330c39 -42 61 -57 80 -57h19v-23h-295v24h116l-291 320v-320h93v-24h-284v24h91z" />
    <glyph glyph-name="afii10029" unicode="&#x41b;" horiz-adv-x="673" 
d="M482 24l-175 561l-174 -561h116v-24h-229v24h55l237 706h39l242 -706h58v-24h-268v24h99z" />
    <glyph glyph-name="afii10030" unicode="&#x41c;" horiz-adv-x="846" 
d="M264 722l161 -554l154 554h217v-24h-91v-674h91v-24h-284v24h92v661l-185 -685h-37l-199 685v-661h99v-24h-248v24h98v674h-91v24h223z" />
    <glyph glyph-name="afii10031" unicode="&#x41d;" horiz-adv-x="748" 
d="M506 358h-279v-334h92v-24h-283v24h90v674h-90v24h283v-24h-92v-307h279v307h-88v24h280v-24h-91v-674h91v-24h-283v24h91v334z" />
    <glyph glyph-name="afii10032" unicode="&#x41e;" horiz-adv-x="680" 
d="M344 737c164 0 291 -164 291 -376c0 -214 -127 -376 -294 -376s-294 162 -294 375c0 178 98 377 297 377zM343 721c-168 0 -178 -252 -178 -358c0 -102 8 -362 176 -362c169 0 176 256 176 360c0 99 -7 360 -174 360z" />
    <glyph glyph-name="afii10033" unicode="&#x41f;" horiz-adv-x="753" 
d="M703 722v-24h-91v-674h91v-24h-283v24h91v674h-283v-674h91v-24h-283v24h91v674h-91v24h667z" />
    <glyph glyph-name="afii10034" unicode="&#x420;" horiz-adv-x="614" 
d="M335 722c195 0 232 -114 232 -190s-35 -135 -96 -169c-34 -19 -73 -28 -151 -28h-92v-311h98v-24h-290v24h91v674h-91v24h299zM228 356h99c87 0 129 56 129 172c0 120 -40 170 -126 170h-54c-44 0 -48 -2 -48 -63v-279z" />
    <glyph glyph-name="afii10035" unicode="&#x421;" horiz-adv-x="629" 
d="M556 730l12 -274h-41c-21 87 -64 265 -190 265c-164 0 -171 -285 -171 -371c0 -236 59 -349 181 -349c119 0 160 137 177 236h43l-11 -237h-38v55c-42 -46 -110 -70 -181 -70c-168 0 -289 154 -289 369c0 160 95 383 290 383c62 0 124 -11 182 -83v76h36z" />
    <glyph glyph-name="afii10036" unicode="&#x422;" horiz-adv-x="566" 
d="M160 703c-56 0 -116 -44 -141 -244h-41l12 263h512l14 -263h-42c-18 147 -56 244 -140 244c-25 0 -36 -17 -36 -54v-625h96v-24h-295v24h97v625c0 37 -10 54 -36 54z" />
    <glyph glyph-name="afii10037" unicode="&#x423;" horiz-adv-x="693" 
d="M308 170l-241 528h-55v24h268v-24h-36c-36 0 -55 -11 -55 -39c0 -7 1 -24 7 -37l157 -336l168 412h-113v24h235v-24h-12c-45 0 -64 -25 -99 -108l-170 -405c-65 -148 -103 -200 -207 -200h-3c-45 0 -79 23 -79 53c0 24 22 41 53 41c26 0 47 -11 47 -26
c0 -8 -6 -21 -6 -30c0 -14 4 -23 10 -23c54 1 127 95 131 170z" />
    <glyph glyph-name="afii10038" unicode="&#x424;" horiz-adv-x="787" 
d="M446 193v-169h91v-24h-283v24h91v169c-30 -34 -67 -48 -119 -48c-109 0 -184 83 -184 205c0 127 82 219 195 219c45 0 83 -14 108 -35v164h-91v24h283v-24h-91v-164c25 21 63 35 108 35c113 0 195 -92 195 -219c0 -122 -75 -205 -184 -205c-52 0 -89 14 -119 48zM446 499
v-243c25 -62 56 -86 99 -86c68 0 109 73 109 189c0 119 -39 200 -105 200h-1c-53 -1 -101 -41 -102 -60zM345 499c0 21 -49 60 -100 60h-2c-65 -1 -106 -80 -106 -200c0 -116 41 -189 109 -189c43 0 74 25 99 86v243z" />
    <glyph glyph-name="afii10039" unicode="&#x425;" horiz-adv-x="675" 
d="M369 402l198 -378h79v-24h-283v24h26c38 1 53 15 53 36c0 11 -3 24 -10 37l-122 225l-164 -298h130v-24h-246v24h5c43 0 75 27 109 87l136 241l-197 346h-53v24h266v-23h-35c-29 0 -37 -7 -37 -27c0 -5 3 -16 9 -26l109 -215l135 267h-104v24h238v-23h-16
c-44 0 -77 -19 -120 -100z" />
    <glyph glyph-name="afii10040" unicode="&#x426;" horiz-adv-x="775" 
d="M719 24v-224h-31c-18 128 -57 200 -202 200h-431v24h91v674h-91v24h283v-24h-91v-674h283v674h-91v24h283v-24h-91v-674h88z" />
    <glyph glyph-name="afii10041" unicode="&#x427;" horiz-adv-x="690" 
d="M345 722h295v-24h-91v-674h91v-24h-290v24h98v311h-92c-78 0 -117 9 -151 28c-61 34 -89 93 -89 169v166h-91v24h284v-24h-93v-170c1 -116 45 -172 133 -172h99v279c0 61 -4 63 -48 63h-54z" />
    <glyph glyph-name="afii10042" unicode="&#x428;" horiz-adv-x="1135" 
d="M1085 0h-1049v24h91v674h-91v24h283v-24h-91v-674h281v674h-91v24h283v-24h-91v-674h283v674h-91v24h283v-24h-91v-674h91v-24z" />
    <glyph glyph-name="afii10043" unicode="&#x429;" horiz-adv-x="1161" 
d="M1104 24v-224h-31c-18 128 -58 200 -203 200h-815v24h91v674h-91v24h283v-24h-91v-674h281v674h-91v24h283v-24h-91v-674h283v674h-91v24h283v-24h-91v-674h91z" />
    <glyph glyph-name="afii10044" unicode="&#x42a;" horiz-adv-x="713" 
d="M155 698c-56 0 -114 -39 -139 -239h-41l12 263h458v-24h-98v-311h92c78 0 117 -9 151 -28c61 -34 96 -93 96 -169s-37 -190 -232 -190h-299v24h91v674h-91zM347 366v-279c0 -61 4 -63 48 -63h54c86 0 126 50 126 170c0 116 -42 172 -129 172h-99z" />
    <glyph glyph-name="afii10045" unicode="&#x42b;" horiz-adv-x="867" 
d="M726 698v-674h91v-24h-283v24h91v674h-91v24h283v-24h-91zM335 0h-299v24h91v674h-91v24h290v-24h-98v-311h92c78 0 117 -9 151 -28c61 -34 96 -93 96 -169s-37 -190 -232 -190zM228 366v-279c0 -61 4 -63 48 -63h54c86 0 126 50 126 170c0 116 -42 172 -129 172h-99z
" />
    <glyph glyph-name="afii10046" unicode="&#x42c;" horiz-adv-x="594" 
d="M335 0h-299v24h91v674h-91v24h290v-24h-98v-311h92c78 0 117 -9 151 -28c61 -34 96 -93 96 -169s-37 -190 -232 -190zM228 366v-279c0 -61 4 -63 48 -63h54c86 0 126 50 126 170c0 116 -42 172 -129 172h-99z" />
    <glyph glyph-name="afii10047" unicode="&#x42d;" horiz-adv-x="634" 
d="M84 730h36v-76c58 72 120 83 182 83c195 0 290 -223 290 -383c0 -215 -121 -369 -289 -369c-71 0 -139 24 -181 70v-55h-38l-11 237h43c17 -99 58 -236 177 -236c122 0 181 113 181 349h-278v48h277c-4 114 -30 323 -170 323c-126 0 -169 -178 -190 -265h-41z" />
    <glyph glyph-name="afii10048" unicode="&#x42e;" horiz-adv-x="951" 
d="M614 721c-168 0 -178 -252 -178 -358c0 -102 8 -362 176 -362c169 0 176 256 176 360c0 99 -7 360 -174 360zM615 737c164 0 291 -164 291 -376c0 -214 -127 -376 -294 -376c-165 0 -291 158 -294 367h-90v-328h91v-24h-283v24h91v674h-91v24h283v-24h-91v-298h92
c13 167 111 337 295 337z" />
    <glyph glyph-name="afii10049" unicode="&#x42f;" horiz-adv-x="696" 
d="M454 362h-46c-102 0 -107 -80 -119 -142l-10 -79c-11 -107 -43 -151 -113 -151c-71 0 -104 48 -107 153h41c3 -75 12 -107 34 -107c17 0 27 10 41 92l11 86c19 99 51 129 118 150c-122 21 -181 82 -181 186c0 109 83 172 228 172h295v-24h-90v-674h90v-24h-283v24h91v338
zM364 383h90v269c0 45 -4 46 -56 46h-45c-81 0 -118 -44 -118 -149c0 -94 23 -166 129 -166z" />
    <glyph glyph-name="afii10065" unicode="&#x430;" horiz-adv-x="539" 
d="M327 287c0 51 -9 115 -81 115c-41 0 -77 -22 -77 -49s19 -31 19 -51c0 -19 -22 -32 -49 -32c-32 0 -52 17 -52 43c0 58 74 99 173 99c152 0 152 -88 152 -131v-185c0 -56 10 -77 31 -77c18 0 52 10 52 14c0 -19 -43 -45 -83 -45c-42 0 -65 26 -79 72
c-38 -46 -79 -72 -140 -72c-78 0 -132 37 -132 92c0 65 70 123 266 162v45zM327 223c-72 -17 -172 -31 -172 -131c0 -49 29 -86 67 -86s67 25 88 63c14 26 17 40 17 100v54z" />
    <glyph glyph-name="afii10066" unicode="&#x431;" horiz-adv-x="498" 
d="M128 367c44 37 75 45 121 45c104 0 189 -96 189 -213s-85 -211 -191 -211s-191 61 -191 264v7c10 443 308 299 392 467c0 -260 -316 -128 -320 -359zM249 402c-65 0 -98 -68 -98 -202c0 -131 34 -202 96 -202s97 71 97 202s-35 202 -95 202z" />
    <glyph glyph-name="afii10067" unicode="&#x432;" horiz-adv-x="443" 
d="M40 400h200c70 0 136 -24 136 -101c0 -42 -59 -77 -105 -88c89 -14 131 -49 131 -105c0 -67 -59 -106 -157 -106h-205v20h50v360h-50v20zM174 216h37c55 0 77 23 77 82c0 60 -18 82 -68 82h-19c-22 0 -27 -6 -27 -33v-131zM174 198v-138c0 -37 2 -40 25 -40h20
c66 0 91 16 91 88c0 79 -30 90 -96 90h-40z" />
    <glyph glyph-name="afii10068" unicode="&#x433;" horiz-adv-x="397" 
d="M179 345v-325h57v-20h-190v20h50v360h-50v20h317l10 -140h-35c-13 99 -33 122 -110 122h-21c-24 0 -28 -5 -28 -37z" />
    <glyph glyph-name="afii10069" unicode="&#x434;" horiz-adv-x="462" 
d="M45 24h39l131 388h22l134 -388h41v-157h-26c-10 85 -32 133 -112 133h-98c-85 0 -96 -48 -106 -133h-26zM277 24l-79 246l-82 -246h161z" />
    <glyph glyph-name="afii10070" unicode="&#x435;" horiz-adv-x="464" 
d="M140 194c0 -81 24 -188 121 -188c59 0 96 27 132 98l32 -8c-36 -72 -95 -108 -179 -108c-135 1 -201 97 -201 213c0 127 86 211 199 211c107 0 181 -65 181 -183v-2h-284c-1 -11 -1 -22 -1 -33zM142 242h154c19 1 34 33 34 53c0 83 -33 107 -88 107
c-58 0 -100 -113 -100 -160z" />
    <glyph glyph-name="afii10072" unicode="&#x436;" horiz-adv-x="662" 
d="M290 193l-161 -169h64v-24h-163v23h11c9 0 22 12 44 30l167 174l-118 105c-28 23 -57 45 -85 45v23h148v-24h-76l169 -153v153h-50v24h177v-24h-51v-155l169 155h-76v24h148v-23c-28 0 -58 -21 -85 -45l-118 -106l167 -173c22 -22 34 -30 45 -30h10v-23h-163v24h64
l-161 167v-167h51v-24h-177v24h50v169z" />
    <glyph glyph-name="afii10073" unicode="&#x437;" horiz-adv-x="410" 
d="M242 218c48 0 123 -53 124 -108v-3c0 -55 -43 -117 -146 -117c-46 0 -87 15 -114 43v-30h-32l-9 128h36c9 -54 33 -128 99 -128c64 0 75 47 75 90c0 3 0 7 -1 10c0 47 -59 114 -99 115c51 16 88 34 89 93c-1 38 -24 68 -62 69c-53 -1 -78 -22 -93 -116h-37l15 136h124
c70 0 129 -24 130 -84c0 -60 -54 -81 -99 -98z" />
    <glyph glyph-name="afii10074" unicode="&#x438;" horiz-adv-x="502" 
d="M329 307l-154 -246v-41h51v-20h-186v20h50v360h-50v20h186v-20h-51v-286l154 245v41h-49v20h183v-20h-50v-360h50v-20h-185v20h51v287z" />
    <glyph glyph-name="afii10075" unicode="&#x439;" horiz-adv-x="502" 
d="M329 307l-154 -246v-41h51v-20h-186v20h50v360h-50v20h186v-20h-51v-286l154 245v41h-49v20h183v-20h-50v-360h50v-20h-185v20h51v287zM248 472c-124 3 -127 95 -127 103v1c1 21 13 48 38 48h1c26 -1 45 -13 45 -36v-6c-3 -21 -21 -29 -21 -51c0 -18 13 -27 65 -27
c49 0 81 11 83 35v4c0 25 -25 27 -25 45v3c3 19 18 30 37 32c36 0 38 -48 38 -48c-4 -68 -60 -102 -134 -103z" />
    <glyph glyph-name="afii10076" unicode="&#x43a;" horiz-adv-x="477" 
d="M90 20v360h-50v20h184v-20h-51v-172c83 85 169 192 209 192c19 0 42 -17 42 -40v-3c-1 -22 -24 -39 -47 -39h-7c-20 0 -43 -8 -70 -30l-69 -75l147 -165c20 -23 33 -29 44 -29h11v-19h-163v20h48l-145 159v-159h51v-20h-184v20h50z" />
    <glyph glyph-name="afii10077" unicode="&#x43b;" horiz-adv-x="401" 
d="M250 16l-82 258l-82 -258h64v-16h-126v16h30l131 396h21l146 -396h21v-16h-149v16h26z" />
    <glyph glyph-name="afii10078" unicode="&#x43c;" horiz-adv-x="576" 
d="M189 400l101 -289l96 289h151v-20h-50v-360h50v-20h-193v20h59v327l-115 -347h-38l-117 337v-317h64v-20h-161v20h54v360h-50v20h149z" />
    <glyph glyph-name="afii10079" unicode="&#x43d;" horiz-adv-x="502" 
d="M329 192h-154v-172h51v-20h-186v20h50v360h-50v20h186v-20h-51v-159h154v159h-49v20h183v-20h-50v-360h50v-20h-185v20h51v172z" />
    <glyph glyph-name="afii10080" unicode="&#x43e;" horiz-adv-x="455" 
d="M239 412c104 0 189 -96 189 -213s-85 -211 -191 -211c-107 0 -191 94 -191 211c0 120 84 213 193 213zM239 402c-65 0 -98 -68 -98 -202c0 -131 34 -202 96 -202s97 71 97 202s-35 202 -95 202z" />
    <glyph glyph-name="afii10081" unicode="&#x43f;" horiz-adv-x="504" 
d="M466 400v-20h-50v-360h50v-20h-186v20h51v360h-156v-360h50v-20h-185v20h50v360h-50v20h426z" />
    <glyph glyph-name="afii10082" unicode="&#x440;" horiz-adv-x="493" 
d="M167 400v-76c28 57 67 88 120 88c100 0 177 -90 177 -204c0 -120 -77 -220 -182 -220c-52 0 -87 21 -115 71v-244h80v-15h-235v15h71v569h-71v16h155zM274 393c-57 0 -106 -118 -106 -205c0 -98 41 -181 103 -181s97 80 97 205c0 114 -34 181 -94 181z" />
    <glyph glyph-name="afii10083" unicode="&#x441;" horiz-adv-x="426" 
d="M270 306c0 29 22 25 22 54c0 24 -22 42 -46 42c-65 0 -106 -80 -106 -200c0 -116 41 -189 109 -189c45 0 76 26 102 93l38 -5c-38 -81 -82 -113 -160 -113c-109 0 -184 83 -184 205c0 127 82 219 195 219c79 0 138 -42 138 -94c0 -29 -23 -48 -54 -48s-54 15 -54 36z" />
    <glyph glyph-name="afii10084" unicode="&#x442;" horiz-adv-x="404" 
d="M143 384c-31 0 -64 -23 -79 -131h-34l10 147h329l11 -147h-35c-10 79 -31 131 -77 131c-14 0 -20 -9 -20 -29v-335h53v-20h-192v20h54v335c0 20 -6 29 -20 29z" />
    <glyph glyph-name="afii10085" unicode="&#x443;" horiz-adv-x="475" 
d="M75 -132c0 -8 -6 -21 -6 -30c0 -14 4 -23 10 -23c26 0 61 51 93 121l33 73l-152 376h-52v15h206v-15h-19c-25 0 -36 -12 -36 -29c0 -6 2 -15 5 -22l89 -234l102 285h-78v15h174v-10h-8c-31 0 -46 -19 -68 -76l-96 -248c-78 -202 -131 -266 -218 -266c-45 0 -79 23 -79 53
c0 24 22 41 53 41c26 0 47 -11 47 -26z" />
    <glyph glyph-name="afii10086" unicode="&#x444;" horiz-adv-x="752" 
d="M340 714h-66v16h150v-406c28 57 68 88 120 88c100 0 178 -90 178 -204c0 -120 -78 -220 -182 -220c-52 0 -88 21 -116 71v-244h80v-15h-234v15h70v244c-20 -39 -62 -71 -110 -71c-110 0 -184 83 -184 205c0 127 82 219 194 219h1c45 0 85 -42 99 -82v384zM532 393
c-58 0 -106 -118 -106 -205c0 -98 40 -181 102 -181s98 80 98 205c0 114 -34 181 -94 181zM234 394c-60 0 -94 -67 -94 -181c0 -125 36 -205 98 -205s102 83 102 181c0 87 -48 205 -106 205z" />
    <glyph glyph-name="afii10087" unicode="&#x445;" horiz-adv-x="507" 
d="M282 210l141 -195h49v-15h-218v15h9c31 0 41 10 41 24c0 10 -3 23 -11 35l-57 84l-120 -143h93v-15h-181v9h5c24 0 50 19 76 50l103 125l-142 201h-37v15h204v-11h-13c-24 0 -34 -8 -34 -28c0 -8 2 -20 7 -28l63 -95l108 147h-95v15h180v-15h-10c-21 0 -41 -9 -61 -36z
" />
    <glyph glyph-name="afii10088" unicode="&#x446;" horiz-adv-x="540" 
d="M487 20v-131h-26c-12 71 -37 111 -130 111h-277v20h50v360h-50v20h185v-20h-51v-360h157v360h-50v20h195v-20h-61v-360h58z" />
    <glyph glyph-name="afii10089" unicode="&#x447;" horiz-adv-x="429" 
d="M199 400h191v-20h-50v-360h50v-20h-188v20h54v162h-59c-50 0 -74 5 -96 15c-39 19 -57 51 -57 92v91h-50v20h185v-20h-52v-89c0 -61 25 -91 74 -91h55v147c0 32 -3 33 -27 33h-29z" />
    <glyph glyph-name="afii10090" unicode="&#x448;" horiz-adv-x="744" 
d="M705 0h-665v20h50v360h-50v20h185v-20h-51v-360h156v360h-50v20h185v-20h-51v-360h157v360h-50v20h184v-20h-50v-360h50v-20z" />
    <glyph glyph-name="afii10091" unicode="&#x449;" horiz-adv-x="783" 
d="M728 20v-131h-26c-11 71 -37 111 -129 111h-519v20h50v360h-50v20h185v-20h-51v-360h156v360h-50v20h185v-20h-51v-360h157v360h-50v20h193v-20h-59v-360h59z" />
    <glyph glyph-name="afii10092" unicode="&#x44a;" horiz-adv-x="533" 
d="M144 380c-31 0 -63 -20 -77 -125h-34l10 145h289v-20h-54v-163h59c50 0 75 -5 97 -16c39 -19 62 -51 62 -94s-25 -107 -154 -107h-198v20h50v360h-50zM278 199v-146c0 -32 3 -33 27 -33h29c48 0 70 26 70 89c0 61 -23 90 -71 90h-55z" />
    <glyph glyph-name="afii10093" unicode="&#x44b;" horiz-adv-x="597" 
d="M508 380v-360h50v-20h-193v20h59v360h-59v20h193v-20h-50zM238 0h-198v20h50v360h-50v20h188v-20h-54v-163h59c50 0 75 -5 97 -16c39 -19 62 -51 62 -94s-25 -107 -154 -107zM174 199v-146c0 -32 3 -33 27 -33h30c48 0 69 26 69 89c0 61 -23 90 -71 90h-55z" />
    <glyph glyph-name="afii10094" unicode="&#x44c;" horiz-adv-x="429" 
d="M238 0h-198v20h50v360h-50v20h188v-20h-54v-163h59c50 0 75 -5 97 -16c39 -19 62 -51 62 -94s-25 -107 -154 -107zM174 199v-146c0 -32 3 -33 27 -33h30c48 0 69 26 69 89c0 61 -23 90 -71 90h-55z" />
    <glyph glyph-name="afii10095" unicode="&#x44d;" horiz-adv-x="425" 
d="M75 404h30v-45c36 45 74 52 113 52c121 0 181 -125 181 -215c0 -121 -76 -208 -180 -208c-44 0 -87 15 -113 44v-30h-31l-9 130h36c9 -54 32 -129 98 -129c68 0 101 61 101 190h-154v27h153c-2 62 -17 176 -95 176c-70 0 -94 -98 -106 -145h-34z" />
    <glyph glyph-name="afii10096" unicode="&#x44e;" horiz-adv-x="643" 
d="M421 399c-93 0 -99 -139 -99 -198c0 -56 5 -200 98 -200c94 0 97 142 97 199c0 55 -3 199 -96 199zM422 412c109 0 193 -92 193 -212c0 -121 -84 -212 -195 -212c-110 0 -194 86 -196 199h-50v-167h51v-20h-185v20h50v360h-50v20h185v-20h-51v-152h52
c9 91 74 184 196 184z" />
    <glyph glyph-name="afii10097" unicode="&#x44f;" horiz-adv-x="493" 
d="M319 196h-23c-52 0 -55 -40 -61 -72l-6 -41c-9 -65 -34 -91 -88 -91c-55 0 -81 29 -83 92h34c2 -38 8 -54 23 -54c11 0 18 5 27 47l7 44c14 55 37 71 87 83c-88 12 -131 45 -131 102c0 60 55 94 152 94h197v-20h-50v-360h50v-20h-185v20h50v176zM269 215h50v141
c0 24 -2 24 -31 24h-25c-45 0 -65 -23 -65 -78c0 -49 12 -87 71 -87z" />
    <glyph glyph-name="uni0450" unicode="&#x450;" horiz-adv-x="452" 
d="M138 194c0 -81 24 -188 121 -188c59 0 96 27 132 98l32 -8c-36 -72 -95 -108 -179 -108c-135 1 -201 97 -201 213c0 127 86 211 199 211c107 0 181 -65 181 -183v-2h-284c-1 -11 -1 -22 -1 -33zM140 242h154c19 1 34 33 34 53c0 83 -33 107 -88 107
c-58 0 -100 -113 -100 -160zM330 472h-39l-132 118c-10 8 -22 20 -22 30c0 13 14 23 32 23c14 0 22 -6 44 -31z" />
    <glyph glyph-name="afii10071" unicode="&#x451;" horiz-adv-x="452" 
d="M138 194c0 -81 24 -188 121 -188c59 0 96 27 132 98l32 -8c-36 -72 -95 -108 -179 -108c-135 1 -201 97 -201 213c0 127 86 211 199 211c107 0 181 -65 181 -183v-2h-284c-1 -11 -1 -22 -1 -33zM140 242h154c19 1 34 33 34 53c0 83 -33 107 -88 107
c-58 0 -100 -113 -100 -160zM150 572c24 0 45 -24 45 -50c0 -28 -21 -50 -46 -50c-23 0 -44 23 -44 50c0 26 21 50 45 50zM316 572c24 0 45 -24 45 -50c0 -28 -21 -50 -46 -50c-24 0 -44 23 -44 50c0 26 20 50 45 50z" />
    </font>
</defs>
</svg>
